(Classical) In Classical Mood (Vol. 47) - Winter Landscapes - 1998, FLAC (tracks+.cue) lossless


 

[Цитировать]

In Classical Mood (Vol. 47) - Winter Landscapes
Жанр: Classical
Страна-производитель диска: United Kingdom
Год издания диска: 1998
Издатель (лейбл): International Masters Publishers
Номер по каталогу: L GBP 60 00 18 026
Аудиокодек: FLAC
Тип рипа: tracks+.cue
Битрейт аудио: lossless
Продолжительность: 01:07:06
Источник: скачано с
сайт-источник/ник/другое: thepiratebay.se
Наличие сканов в содержимом раздачи: нет
Треклист:
01 ADD Antonio Vivaldi - Violin Concerto, for violin, strings & continuo in F minor ("L'inverno," The Four Seasons; "Il cimento" No. 4), Op. 8/4, RV 297 (Winter (excerpt)) - The English Concert, Conducted by Trevor Pinnock [08:34]
02 DDD Nikolaj Rimskij-Korsakov - The Snow Maiden: Dance of the Tumblers - Budapest Philharmonic Orchestra, Conducted by Janos Sandor [03:54]
03 DDD Claude Debussy - Children's Corner, suite for piano (or orchestra), L. 113 (The Snow is Dancing) - Gordon Fergus-Thompson, piano [02:46]
04 DDD Sergej Prokofjev - Winter Bonfire, suite for narrator, boy's chorus & orchestra, Op. 122 (Departure / Snow Outside the Window / Waltz on Ice) - Scottish Chamber Orchestra, Conducted by Josá Serebrier [09:05]
05 ADD Pyotr Il'yich Tchaikovsky - Nutcracker, ballet, Op. 71 (Waltz of the Snowflakes) - Berlin Radio Symphony Orchestra, Conducted by Heinz Rögner [06:20]
06 ADD Wolfgang Amadeus Mozart - German dances (3) for orchestra, K. 605 #3, (Sleigh Ride - Die Schlittenfahrt) - Orchestra Of St. John's Smith Square, Conducted by John Lubbock [02:28]
07 DDD Frédéric Chopin - Etude for piano No. 23 in A minor, Op. 25/11, CT. 36: Winter Wind - Vlado Perlemuter, piano [04:02]
08 DDD George Frideric Handel - Messiah, oratorio, HWV 56 (Pastoral Symphony) - London Handel Orchestra, Winchester Cathedral Choir, Conducted by Martin Neary [01:13]
09 DDD Émile Waldteufel - Les Patineurs Valse ("Skater's Waltz"), Op. 183 - Gulbenkian Orchestra, Conducted by Michel Swierczewski [09:03]
10 DDD Sergej Prokofjev - Lieutenant Kijé, suite for orchestra, Op. 60 (Troika) - Armenia Philharmonic Orchestra, Conducted by Loris Tjeknavorian [03:05]
11 DDD Alexander Glzaunov - The Seasons, ballet, Op. 67 (Winter, Variations 1-4 and Coda) - The Royal Scottish National Orchestra, Conducted by Neeme Järvi [05:43]
12 DDD Peter Ilyich Tchajkovsij - Symphony No.1 in G Minor, Opus 13: Winter Daydreams - Nizjnij Novgorod Philharmonic Orchestra, Conducted by Samuel Friedman [10:53]

Лог создания рипа

Exact Audio Copy V0.99 prebeta 5 from 4. May 2009
EAC extraction logfile from 18. February 2010, 0:31
In Classical Mood / Winter Landscapes
Used drive : TSSTcorpCDDVDW SH-S223F Adapter: 1 ID: 1
Read mode : Secure
Utilize accurate stream : Yes
Defeat audio cache : Yes
Make use of C2 pointers : No
Read offset correction : 6
Overread into Lead-In and Lead-Out : No
Fill up missing offset samples with silence : Yes
Delete leading and trailing silent blocks : No
Null samples used in CRC calculations : Yes
Used interface : Native Win32 interface for Win NT & 2000
Gap handling : Appended to previous track
Used output format : User Defined Encoder
Selected bitrate : 1024 kBit/s
Quality : High
Add ID3 tag : No
Command line compressor : C:\Program\FLAC\flac.exe
Additional command line options : -V -8 -T "artist=%a" -T "title=%t" -T "album=%g" -T "date=%y" -T "tracknumber=%n" -T "genre=%m" %s
TOC of the extracted CD
Track | Start | Length | Start sector | End sector
---------------------------------------------------------
1 | 0:00.00 | 8:34.44 | 0 | 38593
2 | 8:34.44 | 3:54.18 | 38594 | 56161
3 | 12:28.62 | 2:46.26 | 56162 | 68637
4 | 15:15.13 | 9:05.15 | 68638 | 109527
5 | 24:20.28 | 6:20.51 | 109528 | 138078
6 | 30:41.04 | 2:28.59 | 138079 | 149237
7 | 33:09.63 | 4:01.72 | 149238 | 167384
8 | 37:11.60 | 1:13.36 | 167385 | 172895
9 | 38:25.21 | 9:03.62 | 172896 | 213682
10 | 47:29.08 | 3:05.05 | 213683 | 227562
11 | 50:34.13 | 5:43.16 | 227563 | 253303
12 | 56:17.29 | 10:53.29 | 253304 | 302307
Track 1
Filename E:\rippat\In Classical Mood\Winter Landscapes\01 Antonio Vivaldi - The Four Seasons, Opus 8, No. 4, 'Winter'.wav
Pre-gap length 0:00:02.00
Peak level 42.2 %
Track quality 100.0 %
Copy CRC C4983B35
Cannot be verified as accurate (confidence 2) [C4B2649B], AccurateRip returned [0CD504BF]
Copy OK
Track 2
Filename E:\rippat\In Classical Mood\Winter Landscapes\02 Nikolai Rimsky-Korsakov - The Snow Maiden, 'Dance of the Tumblers'.wav
Pre-gap length 0:00:03.62
Peak level 82.4 %
Track quality 100.0 %
Copy CRC E26536A1
Cannot be verified as accurate (confidence 2) [BB43B18F], AccurateRip returned [1803E2D3]
Copy OK
Track 3
Filename E:\rippat\In Classical Mood\Winter Landscapes\03 Claude Debussy - Children's Corner, 'The snow is Dancing'.wav
Pre-gap length 0:00:03.61
Peak level 97.5 %
Track quality 99.9 %
Copy CRC FBE0A016
Cannot be verified as accurate (confidence 2) [AF5D626F], AccurateRip returned [08746F14]
Copy OK
Track 4
Filename E:\rippat\In Classical Mood\Winter Landscapes\04 Sergei Prokofiev - Winter Bonfire, 'Departure', 'Snow Outside the Window', 'Waltz on Ice'.wav
Pre-gap length 0:00:03.61
Peak level 98.3 %
Track quality 100.0 %
Copy CRC 3B2A3B35
Cannot be verified as accurate (confidence 2) [C02CB40B], AccurateRip returned [105823F7]
Copy OK
Track 5
Filename E:\rippat\In Classical Mood\Winter Landscapes\05 Peter Tchaikovsky - The Nutcracker, Opus 71, 'Waltz of the Snowflakes'.wav
Pre-gap length 0:00:03.57
Peak level 98.9 %
Track quality 100.0 %
Copy CRC C0D4CE5D
Cannot be verified as accurate (confidence 2) [B856B4AB], AccurateRip returned [779FE75A]
Copy OK
Track 6
Filename E:\rippat\In Classical Mood\Winter Landscapes\06 Wolfgang Amadeus Mozart - Three German Dances, K605, No. 3, 'Sleigh Ride'.wav
Pre-gap length 0:00:03.61
Peak level 68.0 %
Track quality 100.0 %
Copy CRC 9467ED52
Cannot be verified as accurate (confidence 2) [8A423F3B], AccurateRip returned [0581E6B2]
Copy OK
Track 7
Filename E:\rippat\In Classical Mood\Winter Landscapes\07 Frederic Chopin - Etude For Piano No. 23 in A minor, Op. 25 no. 11, 'Winter Wind'.wav
Pre-gap length 0:00:03.62
Peak level 83.3 %
Track quality 100.0 %
Copy CRC 9D0D598A
Cannot be verified as accurate (confidence 2) [1D182175], AccurateRip returned [E2E5C919]
Copy OK
Track 8
Filename E:\rippat\In Classical Mood\Winter Landscapes\08 George Friedriech Hдndel - Messiah, oratorio HWV 56 'Pastoral Symphony'.wav
Pre-gap length 0:00:03.60
Peak level 11.1 %
Track quality 100.0 %
Copy CRC E9706994
Cannot be verified as accurate (confidence 2) [57CE1CE3], AccurateRip returned [E2023DDF]
Copy OK
Track 9
Filename E:\rippat\In Classical Mood\Winter Landscapes\09 Emile Waldteufel - Les Patineurs Valse ('Skater's Waltz'), Op. 183.wav
Pre-gap length 0:00:03.58
Peak level 99.9 %
Track quality 100.0 %
Copy CRC 51780F44
Cannot be verified as accurate (confidence 2) [AF67C044], AccurateRip returned [C9FBF87E]
Copy OK
Track 10
Filename E:\rippat\In Classical Mood\Winter Landscapes\10 Sergei Prokofiev - Lieutenant Kije, Opus 60; 'Trojka'.wav
Pre-gap length 0:00:03.58
Peak level 75.5 %
Track quality 100.0 %
Copy CRC 94A854CC
Cannot be verified as accurate (confidence 2) [0A82194A], AccurateRip returned [9CCCEFD4]
Copy OK
Track 11
Filename E:\rippat\In Classical Mood\Winter Landscapes\11 Alexander Glazunov - The Seasons, Opus 67, 'Winter', Variations 1-4 and Coda.wav
Pre-gap length 0:00:03.60
Peak level 93.3 %
Track quality 100.0 %
Copy CRC 9C1F3F20
Cannot be verified as accurate (confidence 2) [22C95138], AccurateRip returned [F1DB7C16]
Copy OK
Track 12
Filename E:\rippat\In Classical Mood\Winter Landscapes\12 Peter Tchaikovsky - Symphony No. 1 in G minor, 'Winter Daydreams', Op. 13 (Fourth Movement).wav
Pre-gap length 0:00:03.62
Peak level 93.0 %
Track quality 100.0 %
Copy CRC 35C99CB5
Track not present in AccurateRip database
Copy OK
11 track(s) could not be verified as accurate
1 track(s) not present in the AccurateRip database
No tracks could be verified as accurate
You may have a different pressing from the one(s) in the database
No errors occurred
End of status report

Содержание индексной карты (.CUE)

REM GENRE Classical
REM DATE 1999
REM DISCID A40FBE0C
REM COMMENT "ExactAudioCopy v0.99pb5"
PERFORMER "In Classical Mood"
TITLE "Winter Landscapes"
FILE "01 Antonio Vivaldi - The Four Seasons, Opus 8, No. 4, 'Winter'.flac" WAVE
TRACK 01 AUDIO
TITLE "Antonio Vivaldi - The Four Seasons, Opus 8, No. 4, 'Winter'"
PERFORMER "In Classical Mood"
INDEX 01 00:00:00
TRACK 02 AUDIO
TITLE "Nikolai Rimsky-Korsakov - The Snow Maiden, 'Dance of the Tumblers'"
PERFORMER "In Classical Mood"
INDEX 00 08:30:72
FILE "02 Nikolai Rimsky-Korsakov - The Snow Maiden, 'Dance of the Tumblers'.flac" WAVE
INDEX 01 00:00:00
TRACK 03 AUDIO
TITLE "Claude Debussy - Children's Corner, 'The snow is Dancing'"
PERFORMER "In Classical Mood"
INDEX 00 03:50:47
FILE "03 Claude Debussy - Children's Corner, 'The snow is Dancing'.flac" WAVE
INDEX 01 00:00:00
TRACK 04 AUDIO
TITLE "Sergei Prokofiev - Winter Bonfire, 'Departure', 'Snow Outside the Window', 'W..."
PERFORMER "In Classical Mood"
INDEX 00 02:42:55
FILE "04 Sergei Prokofiev - Winter Bonfire, 'Departure', 'Snow Outside the Window', 'Waltz on Ice'.flac" WAVE
INDEX 01 00:00:00
TRACK 05 AUDIO
TITLE "Peter Tchaikovsky - The Nutcracker, Opus 71, 'Waltz of the Snowflakes'"
PERFORMER "In Classical Mood"
INDEX 00 09:01:47
FILE "05 Peter Tchaikovsky - The Nutcracker, Opus 71, 'Waltz of the Snowflakes'.flac" WAVE
INDEX 01 00:00:00
TRACK 06 AUDIO
TITLE "Wolfgang Amadeus Mozart - Three German Dances, K605, No. 3, 'Sleigh Ride'"
PERFORMER "In Classical Mood"
INDEX 00 06:17:05
FILE "06 Wolfgang Amadeus Mozart - Three German Dances, K605, No. 3, 'Sleigh Ride'.flac" WAVE
INDEX 01 00:00:00
TRACK 07 AUDIO
TITLE "Frederic Chopin - Etude For Piano No. 23 in A minor, Op. 25 no. 11, 'Winter W..."
PERFORMER "In Classical Mood"
INDEX 00 02:25:12
FILE "07 Frederic Chopin - Etude For Piano No. 23 in A minor, Op. 25 no. 11, 'Winter Wind'.flac" WAVE
INDEX 01 00:00:00
TRACK 08 AUDIO
TITLE "George Friedriech Handel - Messiah, oratorio HWV 56 'Pastoral Symphony'"
PERFORMER "In Classical Mood"
INDEX 00 03:58:27
FILE "08 George Friedriech Hдndel - Messiah, oratorio HWV 56 'Pastoral Symphony'.flac" WAVE
INDEX 01 00:00:00
TRACK 09 AUDIO
TITLE "Emile Waldteufel - Les Patineurs Valse ('Skater's Waltz'), Op. 183"
PERFORMER "In Classical Mood"
INDEX 00 01:09:67
FILE "09 Emile Waldteufel - Les Patineurs Valse ('Skater's Waltz'), Op. 183.flac" WAVE
INDEX 01 00:00:00
TRACK 10 AUDIO
TITLE "Sergei Prokofiev - Lieutenant Kije, Opus 60; 'Trojka'"
PERFORMER "In Classical Mood"
INDEX 00 09:00:18
FILE "10 Sergei Prokofiev - Lieutenant Kije, Opus 60; 'Trojka'.flac" WAVE
INDEX 01 00:00:00
TRACK 11 AUDIO
TITLE "Alexander Glazunov - The Seasons, Opus 67, 'Winter', Variations 1-4 and Coda"
PERFORMER "In Classical Mood"
INDEX 00 03:01:35
FILE "11 Alexander Glazunov - The Seasons, Opus 67, 'Winter', Variations 1-4 and Coda.flac" WAVE
INDEX 01 00:00:00
TRACK 12 AUDIO
TITLE "Peter Tchaikovsky - Symphony No. 1 in G minor, 'Winter Daydreams', Op. 13 (Fo..."
PERFORMER "In Classical Mood"
INDEX 00 05:39:44
FILE "12 Peter Tchaikovsky - Symphony No. 1 in G minor, 'Winter Daydreams', Op. 13 (Fourth Movement).flac" WAVE
INDEX 01 00:00:00



Показать сообщения:    

Текущее время: 05-Дек 05:29

Часовой пояс: UTC + 3


Вы не можете начинать темы
Вы не можете отвечать на сообщения
Вы не можете редактировать свои сообщения
Вы не можете удалять свои сообщения
Вы не можете голосовать в опросах
Вы не можете прикреплять файлы к сообщениям
Вы не можете скачивать файлы