По Волне Моей Памяти. Золотой Винил (Олег Нестеров) ч.37 [2013-2014. Телепередача. IPTVRip]


Статистика раздачи [Обновить пиров]
Размер:  4.36 GB   |    Зарегистрирован:  8 месяцев 17 дней   |    Скачан:  0 раз

Полного источника не было: Никогда

Личеров:  20  [  0 KB/s  ]   Подробная статистика пиров
 
   
 
 
 

[Цитировать]

По Волне Моей Памяти. Золотой Винил (Олег Нестеров) ч.37- Год выпуска: 2013-2014
Страна: Россия
Жанр: Телепередача-Продолжительность: 8 передач (см. "Тех. данные файлов")
Режиссер: Канал "ВРЕМЯ"
В ролях: Олег Нестеров-Описание: "Люди Времени" - авторская программа Олега Нестерова. Невероятные встречи, эксклюзивные интервью и самые актуальные персоны! Герои этой передачи - замечательные люди и их замечательные деяния. Вместе с вами мы будем ходить в гости, ловить заезжих гастролеров, посещать интересные съемки, концерты, а так же будем сами ждать гостей - в студии нашего канала. Писатели и музыканты, философы и политики - не важно! Важно, что эти люди, и их поступки повлияюли на нашу с вами жизнь. Они были актуальны не только вчера - они актуальны и сейчас, сегодня!-Список передач: По Волне Моей Памяти: А.Давидян. И.Богушевская. Рома Жуков. Золотой Винил: Вечная Любовь. Гарсон № 2. Город Золотой. Дмитрий Шостакович. Заставки к Советским Передачам.ч1. Лебединая Верность. Люси. Москва Слезам не Верит. Натали. Олимпийский Мишка. Скрипка-лиса. Труффальдино из Бергамо. Ты не Ангел-Качество: IPTVRip
Формат: AVI
Видео кодек: XviD
Аудио кодек: MP3-Видео: 704x512 ~1600 Kbps 25.00 fps
Аудио: MPEG Audio Layer 3 48000 Hz stereo 128 Kbps CBR

Тех. данные файлов:

А.Давидян. По Волне Моей Памяти. 704x512 1601 Kbps 00:50:24
И.Богушевская. По Волне Моей Памяти. 704x512 1601 Kbps 00:54:42
Рома Жуков. По Волне Моей Памяти. 704x512 1602 Kbps 00:52:34
Золотой Винил. Вечная Любовь. 704x512 1601 Kbps 00:16:26
Золотой Винил. Гарсон № 2. 704x512 1601 Kbps 00:13:54
Золотой Винил. Город Золотой. 704x512 1601 Kbps 00:14:07
Золотой Винил. Дмитрий Шостакович. 704x512 1600 Kbps 00:16:56
Золотой Винил. Заставки к Советским Передачам.ч1. 704x512 1601 Kbps 00:15:11
Золотой Винил. Лебединая Верность. 704x512 1601 Kbps 00:16:37
Золотой Винил. Люси. 704x512 1600 Kbps 00:17:47
Золотой Винил. Москва Слезам не Верит. 704x512 1601 Kbps 00:15:51
Золотой Винил. Натали. 704x512 1601 Kbps 00:15:23
Золотой Винил. Олимпийский Мишка. 704x512 1601 Kbps 00:13:27
Золотой Винил. Скрипка-лиса. 704x512 1600 Kbps 00:13:12
Золотой Винил. Труффальдино из Бергамо. 704x512 1601 Kbps 00:15:38
Золотой Винил. Ты не Ангел. 704x512 1601 Kbps 00:16:43

Скриншоты: кликните для увеличения

MediaInfo:

General
Format : AVI
Format/Info : Audio Video Interleave
File size : 627 MiB
Duration : 50mn 24s
Overall bit rate : 1 739 Kbps
Writing application : VirtualDubMod 1.5.10.3 | www.virtualdub-fr.org || (build 2550/release)
Writing library : VirtualDubMod build 2550/release
Video
ID : 0
Format : MPEG-4 Visual
Format profile : Advanced Simple@L5
Format settings, BVOP : Yes
Format settings, QPel : No
Format settings, GMC : No warppoints
Format settings, Matrix : Default (MPEG)
Codec ID : XVID
Codec ID/Hint : XviD
Duration : 50mn 24s
Bit rate : 1 601 Kbps
Width : 704 pixels
Height : 512 pixels
Display aspect ratio : 1.375
Frame rate : 25.000 fps
Color space : YUV
Chroma subsampling : 4:2:0
Bit depth : 8 bits
Scan type : Progressive
Compression mode : Lossy
Bits/(Pixel*Frame) : 0.178
Stream size : 577 MiB (92%)
Writing library : XviD 1.2.1 (UTC 2008-12-04)
Audio
ID : 1
Format : MPEG Audio
Format version : Version 1
Format profile : Layer 3
Codec ID : 55
Codec ID/Hint : MP3
Duration : 50mn 24s
Bit rate mode : Constant
Bit rate : 128 Kbps
Channel(s) : 2 channels
Sampling rate : 48.0 KHz
Compression mode : Lossy
Stream size : 46.1 MiB (7%)
Alignment : Aligned on interleaves
Interleave, duration : 40 ms (1.00 video frame)
Interleave, preload duration : 504 ms
Writing library : LAME3.99r
Encoding settings : -m s -V 4 -q 0 -lowpass 17 -b 128

Все передачи "По Волне Моей Памяти":

По Волне Моей Памяти (Олег Нестеров) ч.1
По Волне Моей Памяти (Олег Нестеров) ч.2
По Волне Моей Памяти (Олег Нестеров) ч.3
По Волне Моей Памяти (Олег Нестеров) ч.4
По Волне Моей Памяти (Олег Нестеров) ч.5
По Волне Моей Памяти (Олег Нестеров) ч.6
По Волне Моей Памяти (Олег Нестеров) ч.7
По Волне Моей Памяти (Олег Нестеров) ч.8
По Волне Моей Памяти (Олег Нестеров) ч.9
По Волне Моей Памяти (Олег Нестеров) ч.10
По Волне Моей Памяти (Олег Нестеров) ч.11
По Волне Моей Памяти (Олег Нестеров) ч.12
По Волне Моей Памяти (Олег Нестеров) ч.13
По Волне Моей Памяти (Олег Нестеров) ч.14
По Волне Моей Памяти (Олег Нестеров) ч.15
По Волне Моей Памяти (Олег Нестеров) ч.16
По Волне Моей Памяти (Олег Нестеров) ч.17
По Волне Моей Памяти (Олег Нестеров) ч.18
По Волне Моей Памяти (Олег Нестеров) ч.19
По Волне Моей Памяти (Олег Нестеров) ч.20
По Волне Моей Памяти (Олег Нестеров) ч.21
По Волне Моей Памяти (Олег Нестеров) ч.22
По Волне Моей Памяти (Олег Нестеров) ч.23
По Волне Моей Памяти (Олег Нестеров) ч.24
По Волне Моей Памяти (Олег Нестеров) ч.25
По Волне Моей Памяти (Олег Нестеров) ч.26
По Волне Моей Памяти (Олег Нестеров) ч.27
По Волне Моей Памяти (Олег Нестеров) ч.28
По Волне Моей Памяти (Олег Нестеров) ч.29
По Волне Моей Памяти (Олег Нестеров) ч.30
По Волне Моей Памяти (Олег Нестеров) ч.31
По Волне Моей Памяти (Олег Нестеров) ч.32
По Волне Моей Памяти (Олег Нестеров) ч.33
По Волне Моей Памяти (Олег Нестеров) ч.34
По Волне Моей Памяти (Олег Нестеров) ч.35
По Волне Моей Памяти (Олег Нестеров) ч.36
По Волне Моей Памяти (Олег Нестеров) ч.38
По Волне Моей Памяти (Олег Нестеров) ч.39
[teatrix.ru].t20105.torrent 
Торрент: Зарегистрирован [ 2016-03-19 00:49 ] · 29AEEC737C4AE0283AF6CED566638075BDE144DF

Скачать .torrent

Скачать

24 KB

Статус: проверено
Скачан: 0 раз
Размер: 4.36 GB
terms.php



Быстрый ответ

Имя:

      
Для отправки сообщений необходимо включить JavaScript
Показать сообщения:    

Текущее время: 05-Дек 13:29

Часовой пояс: UTC + 3


Вы можете начинать темы
Вы можете отвечать на сообщения
Вы не можете редактировать свои сообщения
Вы не можете удалять свои сообщения
Вы не можете голосовать в опросах
Вы не можете прикреплять файлы к сообщениям
Вы можете скачивать файлы