Замок эльфов / Замок эльфов (Рустам Ильясов) [2013, Россия, короткометражка, WEB-DL HQ] + Original Rus


Статистика раздачи [Обновить пиров]
Размер:  3.87 GB   |    Зарегистрирован:  8 месяцев 21 день   |    Скачан:  0 раз

Полного источника не было: Никогда

 
   
 
 
 

[Цитировать]

Замок эльфов Страна: Россия
Жанр: короткометражка
Год выпуска: 2013
Продолжительность: 00:25:25
Перевод: Не требуется
Cубтитры: нет
Оригинальная аудиодорожка: русский
Режиссер: Рустам Ильясов
В ролях: Алексей Вертков, Екатерина Молоховская, Виктор Вержбицкий, Александр Обласов, Алексей Черных, Елена Муромцева, Григорий Кокоткин, Надежда Жарычева, Владимир Лысенко
Описание: С понедельника по пятницу Максим Серов рисует монстров для компьютерных игр. Утром — офис, вечером — пиво, ночью — спать. Когда-то он хотел стать настоящим художником, но обстоятельства каждый раз были сильнее его. В день, когда его девушка, наконец, решила порвать с ним, Макс остаётся один на один с проблемами, решение которых годами откладывал на потом.
Доп. информация: Web версия в высоком исходном качестве
Сэмпл: http://teatrix.ru/viewtopic.php?t=4900357
Качество видео: WEB-DL HQ
Формат видео: MOV
Видео: avc, 1920x1080, 16x9, 20.3 Mbps, 25.000 fps
Аудио: pcm, 1 536 Kbps, 48.0 KHz, 16bit, 2ch
Награды: Лучший короткометражный фильм 35-го Московского международного кинофестиваля

MediaInfo

General
Complete name : P:\КЛИПЫ\Замок эльфов.mov
Format : MPEG-4
Format profile : QuickTime
Codec ID : qt
File size : 3.87 GiB
Duration : 25mn 25s
Overall bit rate mode : Variable
Overall bit rate : 21.8 Mbps
Encoded date : UTC 2013-01-21 10:35:47
Tagged date : UTC 2013-01-21 12:12:16
Writing library : Apple QuickTime
©TIM : 00:00:00:00
©TSC : 25
©TSZ : 1
Video
ID : 1
Format : AVC
Format/Info : Advanced Video Codec
Format profile : Main@L4.0
Format settings, CABAC : No
Format settings, ReFrames : 2 frames
Codec ID : avc1
Codec ID/Info : Advanced Video Coding
Duration : 25mn 25s
Bit rate mode : Variable
Bit rate : 20.3 Mbps
Width : 1 920 pixels
Height : 1 080 pixels
Display aspect ratio : 16:9
Frame rate mode : Constant
Frame rate : 25.000 fps
Color space : YUV
Chroma subsampling : 4:2:0
Bit depth : 8 bits
Scan type : Progressive
Bits/(Pixel*Frame) : 0.391
Stream size : 3.60 GiB (93%)
Title : Обработчик видео Apple / Обработчик псевдонимов Apple
Language : English
Encoded date : UTC 2013-01-21 10:35:47
Tagged date : UTC 2013-01-21 12:12:16
Color primaries : BT.709
Transfer characteristics : BT.709
Matrix coefficients : BT.709
Audio
ID : 2
Format : PCM
Format settings, Endianness : Little
Format settings, Sign : Signed
Codec ID : sowt
Duration : 25mn 25s
Bit rate mode : Constant
Bit rate : 1 536 Kbps
Channel(s) : 2 channels
Channel positions : Front: L R
Sampling rate : 48.0 KHz
Bit depth : 16 bits
Stream size : 279 MiB (7%)
Title : Обработчик звука Apple / Обработчик псевдонимов Apple
Language : English
Encoded date : UTC 2013-01-21 10:35:47
Tagged date : UTC 2013-01-21 12:12:16
Other
ID : 3
Type : Time code
Format : QuickTime TC
Duration : 25mn 25s
Time code of first frame : 00:00:00:00
Time code settings : Striped
Title : Обработчик временного кода / Обработчик псевдонимов Apple
Language : English
Encoded date : UTC 2013-01-21 12:12:16
Tagged date : UTC 2013-01-21 12:12:16

Скриншот c названием фильма

Скриншоты

[teatrix.ru].t20106.torrent 
Торрент: Зарегистрирован [ 2016-03-19 00:58 ] · 54AAA0DE31B71F38D6F2941A1EF022F8D4DE954D

Скачать .torrent

Скачать

20 KB

Статус: проверено
Скачан: 0 раз
Размер: 3.87 GB
terms.php



Быстрый ответ

Имя:

      
Для отправки сообщений необходимо включить JavaScript
Показать сообщения:    

Текущее время: 09-Дек 16:33

Часовой пояс: UTC + 3


Вы можете начинать темы
Вы можете отвечать на сообщения
Вы не можете редактировать свои сообщения
Вы не можете удалять свои сообщения
Вы не можете голосовать в опросах
Вы не можете прикреплять файлы к сообщениям
Вы можете скачивать файлы