Валентинов день (Валентина Еренькова) [2007 г., Беларусь, мелодрама, SATRip] Национальный драматический театр им. М.Горького (Русский драматический театр), г. Минск


 

[Цитировать]

Валентинов день Название театра: Национальный драматический театр им. М.Горького (Русский драматический театр), г. Минск.
Год выпуска: 2007.
Страна: Беларусь .
Жанр: мелодрама.
Продолжительность: 02:10:39.
Язык: русский.
Режиссер: заслуженный деятель искусств Республики Беларусь Валентина Еренькова.
Действующие лица и исполнители:
Валентна, 60 лет – народная артистка Республики Беларусь Бела Масумян,
Катя, 60 лет – народная артистка Республики Беларусь Наталия Гайда,
Катя, 18-20 лет – Александра Богданова,
Катя, 35-40 лет – Вероника Пляшкевич,
Валентин, 18-20 лет – Павел Вишняков
Валентин, 35-40 лет – Сергей Чекерес.
В спектакле также заняты: Руслан Чернецкий, Виталий Кравченко, Иван Трус, Андрей Бибиков.
Спектакль вела: Галина Кочеткова.
О спектакле:
Иван Вырыпаев написал "Валентинов день", как продолжение нашумевшей пьесы Михаила Рощина "Валентин и Валентина".
Когда-то трое героев этой истории - Валентина, Катя и Валентин - не смогли разобраться в своих чувствах и сделать нужный выбор. Сюжет о любви молодых людей из советского прошлого получает свое продолжение в 2012 году и превращается в мелодраматический фарс, наполненный анекдотическими и драматическими ситуациями.
Персонажи "Валентинова дня" встречаются то в прошлом, то в будущем, то в настоящем, но ни в каком из времен не могут выпутаться из любовного треугольника. Недаром эпиграфом к пьесе Вырыпаева стали слова арабского философа Коры Аль Музани: "Не пытайтесь искать логику во времени - во времени логики нет. Не пытайтесь объяснить время логическим путем, времени, как такового, не существует. Есть две вещи: любовь и любовь".

Дополнительная информация:
Выпущено: © Белтелерадиокомпания.
Автор: Иван Вырыпаев.
Сценография: Александр Костюченко.
Композитор: Алексей Ереньков.
Художник по костюмам: Татьяна Лисовенко.
Хореография: Евгений Корняг.
Художественный руководитель театра: народный артист Республики Беларусь, академик Международной академии театра Борис Луценко.
Премьера спектакля состоялась 12 сентября 2007 года.

О спектакле.
Релиз
Спасибо AND01AND за исходный материал.

Качество видео:...SATRip
Формат:.................AVI
Видео:..688x512 (1.34:1), 25 fps, XviD MPEG-4 ~1461 kbps avg, 0.17 bit/pixel
Аудио:..48 kHz, MPEG Layer 3, 2 ch, ~128.00 kbps avg

Отчет MI

Общее
Полное имя : Valentinov.den'_Nacional'nyj.DT.im.Gor'kogo.Minsk.2007.XviD.SATRip.fenixclub.avi
Формат : AVI
Формат/Информация : Audio Video Interleave
Размер файла : 1,46 Гбайт
Продолжительность : 2 ч. 10 м.
Общий поток : 1600 Кбит/сек
Программа кодирования : VirtualDubModRus 1.5.10.2 (build 2542/release)
Библиотека кодирования : VirtualDub build 32842/release
Видео
Идентификатор : 0
Формат : MPEG-4 Visual
Профиль формата : Advanced Simple@L5
Параметр BVOP формата : 2
Параметр QPel формата : Нет
Параметр GMC формата : Без точки перехода
Параметр матрицы формата : Default (H.263)
Режим смешивания : Сжатый битовый поток
Идентификатор кодека : XVID
Идентификатор кодека/Подсказка : XviD
Продолжительность : 2 ч. 10 м.
Битрейт : 1462 Кбит/сек
Ширина : 688 пикселей
Высота : 512 пикселей
Соотношение сторон : 4:3
Частота кадров : 25,000 кадров/сек
Цветовое пространство : YUV
Субдискретизация насыщенности : 4:2:0
Битовая глубина : 8 бит
Тип развёртки : Прогрессивная
Метод сжатия : С потерями
Бит/(Пиксели*Кадры) : 0.166
Размер потока : 1,33 Гбайт (91%)
Библиотека кодирования : XviD 1.2.1 (UTC 2008-12-04)
Аудио
Идентификатор : 1
Формат : MPEG Audio
Версия формата : Version 1
Профиль формата : Layer 3
Режим : Joint stereo
Расширение режима : MS Stereo
Идентификатор кодека : 55
Идентификатор кодека/Подсказка : MP3
Продолжительность : 2 ч. 10 м.
Вид битрейта : Постоянный
Битрейт : 128 Кбит/сек
Каналы : 2 канала
Частота : 48,0 КГц
Метод сжатия : С потерями
Задержка видео : 200 мс.
Размер потока : 120 Мбайт (8%)
Выравнивание : Разделение по промежуткам
Продолжительность промежутка : 40 мс. (1,00 видеокадр)
Время предзагрузки промежутка : 500 мс.
Библиотека кодирования : LAME3.98

Скриншоты

Альтернативный хост




Показать сообщения:    

Текущее время: 09-Дек 22:24

Часовой пояс: UTC + 3


Вы не можете начинать темы
Вы не можете отвечать на сообщения
Вы не можете редактировать свои сообщения
Вы не можете удалять свои сообщения
Вы не можете голосовать в опросах
Вы не можете прикреплять файлы к сообщениям
Вы не можете скачивать файлы