Срочно требуется... Самоубийца (Борис Луценко) [2007, Республика Беларусь, Трагикомедия, DVB-AVC] Национальный академический драматический театр им. Максима Горького, Минск


 

[Цитировать]

Срочно требуется... Самоубийца
Название театра: Национальный академический драматический театр им. Максима Горького, Минск
Страна: Республика Беларусь
Жанр: Трагикомедия
Год выпуска: 2007
Продолжительность: 2-а действия 01:22:02 + 01:01:59
Перевод: Не требуется
Язык: Русский
Режиссёр: народный артист Беларуси Борис Луценко
В ролях:
Подсекальников – Алексей Шедько
Мария Лукьяновна, жена Подсекальникова – Эмилия Пранскуте
Серафима Ильинична, теща Подсекальникова – Лина Цветкова
Калабушкин, сосед Подсекальникова – заслуженный артист Российской Федерации Александр Брухацкий
Маргарита Пересветова, любовница Калабушкина – Елена Пастревич
Аристарх Гранд-Скубик, представитель интеллигенции – заслуженный артист Российской Федерации – Олег Корчиков
Клеопатра Максимовна, представительница за духовную любовь – Татьяна Бовкалова
Раиса Филипповна, представительница за плотскую любовь – Татьяна Гаркуша
Егор Тимофеевич, курьер – Виктор Гудинович
Пугачёв, мясник, представитель торговли – Иван Мацкевич
Писатель – заслуженный артист Республики Беларусь Андрей Душечкин
Господин Елпидий – Вячеслав Солодилов
Старушка – заслуженная артистка Республики Беларусь Олимпиада Шах-Парон
Вторая старушка – заслуженная артистка Республики Беларусь Зоя Осмоловская, Наталья Чемодурова
Портниха – заслуженная артистка Республики Беларусь Людмила Былинская
Олег Леонидович – Сергей Чекерес
Клоун-мим – Виталий Быков
Санитары: Павел Вишняков, Виталий Кравченко, Иван Трус, Алексей Сенчило
Описание: Много неприятных сюрпризов преподносит порой жизнь: нет работы, нет денег, жена больше не привлекает вас своей красотой, а тёщу вы просто видеть не можете… И еще: бывает, что ночью так хочется ливерной колбасы, которой, к сожалению, нет. Что делать, если жизнь загнала в тупик? Главный герой спектакля – Подсекальников – приходит к выводу: «Застрелиться!» Новоиспечённому суициденту помогут «добрые люди». Зачем же умирать просто так? Всегда найдётся повод умереть ради чего-то или кого-то… А может быть ДЛЯ кого-то… Но что там, за порогом жизни?
Пьеса Николая Эрдмана "Самоубийца" была запрещена в СССР.
В мае 1932 года Мейерхольд начал репетировать "Самоубийцу", в декабре 1931 года за постановку брался Станиславский во МХАТе, но все разбилось о слова, произнесенные в самом главном кремлевском кабинете: "Она пустовата и вредна!" Николай Эрдман был арестован во время съемок фильма "Веселые ребята" в 1933 году. Вскоре была запрещена его пьеса "Мандат", поставленная Мейерхольдом в его театре в 1925 году и прошедшая более 350 раз. Имя Эрдмана было вычеркнуто из титров фильмов, а сам драматург отправился по этапу в Красноярский край, в Енисейск.
В 1982 году режиссер Валентин Плучек все же поставил ее в Театре сатиры.
Доп. информация:
Автор инсценировки и режиссёр-постановщик – народный артист Беларуси Борис Луценко
Режиссёр – Артур Ильиных
Художник-постановщик – Вениамин Маршак
Композитор и музыкальный оформитель – Александр Сандлер
Художник по костюмам – Алёна Игруша
Балетмейстер – Геннадий Фомин
Помощник режиссёра – Галина Кочеткова
В спектакле использованы произведения и музыка Александра Вертинского
Премьера спектакля - 15 декабря 2000 года

Благодарность: исходник для данной раздачи, записан с цифрового наземного канала, т.е. DVB-Т
Запись потока *.ts с наземного цифрового телеканала "Беларусь 3", ремукс в *.mkv программой VideoReDo.
Семпл: http://rusfolder.com/42746335
Качество видео: DVB
Формат видео: MKV
Видео 1: AVC (H264), 720x576 (4:3), 25 fps, 2 103 Kbps
Видео 2: AVC (H264), 720x576 (4:3), 25 fps, 2 105 Kbps
Аудио: MP2, 256 kbps, 2 channels, 48 kHz

MediaInfo 1

General
Unique ID : 157526410656310593839271537644015650149 (0x76827BAE813EC885B40A6888AE0F0565)
Complete name : D:\Театр\Срочно требуется... Самоубийца (2007) (БТфМ)\Срочно требуется... Самоубийца (2007)\Срочно требуется... Самоубийца_01_2007.mkv
Format : Matroska
Format version : Version 2
File size : 1.38 GiB
Duration : 1h 22mn
Overall bit rate : 2 407 Kbps
Writing application : Lavf52.64.2
Writing library : Lavf52.64.2
Video
ID : 1
Format : AVC
Format/Info : Advanced Video Codec
Format profile : Main@L3.0
Format settings, CABAC : Yes
Format settings, ReFrames : 4 frames
Format settings, GOP : M=4, N=24
Codec ID : V_MPEG4/ISO/AVC
Duration : 1h 22mn
Bit rate : 2 103 Kbps
Width : 720 pixels
Height : 576 pixels
Display aspect ratio : 4:3
Original display aspect ratio : 4:3
Frame rate mode : Constant
Frame rate : 25.000 fps
Standard : PAL
Color space : YUV
Chroma subsampling : 4:2:0
Bit depth : 8 bits
Scan type : MBAFF
Scan order : Top Field First
Bits/(Pixel*Frame) : 0.203
Stream size : 1.21 GiB (87%)
Default : Yes
Forced : No
Color primaries : BT.601 PAL
Transfer characteristics : BT.470 System B, BT.470 System G
Matrix coefficients : BT.601
Color range : Limited
Audio
ID : 2
Format : MPEG Audio
Format version : Version 1
Format profile : Layer 2
Codec ID : A_MPEG/L2
Codec ID/Hint : MP2
Duration : 1h 22mn
Bit rate mode : Constant
Bit rate : 256 Kbps
Channel(s) : 2 channels
Sampling rate : 48.0 KHz
Compression mode : Lossy
Stream size : 150 MiB (11%)
Language : det
Default : Yes
Forced : No

MediaInfo 2

General
Unique ID : 242083492171401295370550182558064705227 (0xB61F95AC5FD3CD9EADECBB43C0F7FECB)
Complete name : D:\Новая земля 2\Театр\Срочно требуется... Самоубийца (2007) (БТфМ)\Срочно требуется... Самоубийца (2007)\Срочно требуется... Самоубийца_02_2007.mkv
Format : Matroska
Format version : Version 2
File size : 1.04 GiB
Duration : 1h 1mn
Overall bit rate : 2 409 Kbps
Writing application : Lavf52.64.2
Writing library : Lavf52.64.2
Video
ID : 1
Format : AVC
Format/Info : Advanced Video Codec
Format profile : Main@L3.0
Format settings, CABAC : Yes
Format settings, ReFrames : 4 frames
Format settings, GOP : M=4, N=24
Codec ID : V_MPEG4/ISO/AVC
Duration : 1h 1mn
Bit rate : 2 105 Kbps
Width : 720 pixels
Height : 576 pixels
Display aspect ratio : 4:3
Original display aspect ratio : 4:3
Frame rate mode : Constant
Frame rate : 25.000 fps
Standard : PAL
Color space : YUV
Chroma subsampling : 4:2:0
Bit depth : 8 bits
Scan type : MBAFF
Scan order : Top Field First
Bits/(Pixel*Frame) : 0.203
Stream size : 933 MiB (87%)
Default : Yes
Forced : No
Color primaries : BT.601 PAL
Transfer characteristics : BT.470 System B, BT.470 System G
Matrix coefficients : BT.601
Color range : Limited
Audio
ID : 2
Format : MPEG Audio
Format version : Version 1
Format profile : Layer 2
Codec ID : A_MPEG/L2
Codec ID/Hint : MP2
Duration : 1h 1mn
Bit rate mode : Constant
Bit rate : 256 Kbps
Channel(s) : 2 channels
Sampling rate : 48.0 KHz
Compression mode : Lossy
Stream size : 114 MiB (11%)
Language : det
Default : Yes
Forced : No



Показать сообщения:    

Текущее время: 04-Дек 21:21

Часовой пояс: UTC + 3


Вы не можете начинать темы
Вы не можете отвечать на сообщения
Вы не можете редактировать свои сообщения
Вы не можете удалять свои сообщения
Вы не можете голосовать в опросах
Вы не можете прикреплять файлы к сообщениям
Вы не можете скачивать файлы