(Baroque sacred) Marc-Antoine Charpentier - Noel , Christmas Cantatas (Ensemble 94, Solistenensemble stimmkunst, Kay Johannsen) - 2008, FLAC (tracks+.cue) lossless


Статистика раздачи [Обновить пиров]
Размер:  320 MB   |    Зарегистрирован:  8 месяцев 15 дней   |    Скачан:  0 раз

Полного источника не было: Никогда

 
   
 
 
 

[Цитировать]

Marc-Antoine Charpentier - Noël , Christmas Cantatas

Жанр: Baroque sacred
Страна-производитель диска: Made in Germany
Год издания диска: 2008
Издатель (лейбл): Carus
Номер по каталогу: 83.196
Дата записи: 2008
Аудиокодек: FLAC
Тип рипа: tracks+.cue
Битрейт аудио: lossless
Продолжительность: 60'02
Источник: релизер
сайт-источник/ник/другое: Thomas Cadfael and Meeting in Music blogspot
Наличие сканов в содержимом раздачи: да
Треклист:

скрытый текст

1 Canticum in nativitatem Domini 07:12
2 Noël: O Créateur 01:34
3 Noël: Autre Noël, Laissez paitre vos betes 01:21
4 In nativitate Domini nostri Jesu Christi canticum 10:33
5 Noël: Les Bourgeois de Chastres 02:32
6 Magnificat 07:06
7 Noël: Joseph est bien Marié 01:02
8 Où s'en vont ces guays bergers 01:12
9 In circumsione Domini 05:19
10 Or nous dites Marie 02:12
11 A la venue de Noël 01:21
12 Pour la fete de l'Épiphanie 06:22
13 Noël: Une jeune pucelle 01:31
14 In festo purificationis 05:00
15 Noël: Vous qui désirez sans fin 02:04
16 In nativitatem Domini canticum 04:33
Исполнители:

скрытый текст

Marc-Antoine Charpentier (1643-1704)
Noël , Christmas Cantatas
CD 1: 1, 4, 6, 9, 12, 14, 16
Soloist - soprano: Andrea Lauren Brown
CD 1: 1, 6, 9, 12, 16
Undine Holzwarth
CD 1: 9, 14
Soloist - alto: Marion Eckstein
CD 1: 1, 4, 6, 12, 16
Alexandra Paulmichl
CD 1: 14
Soloist - tenor: Daniel Schreiber
CD 1: 16
Fabian Wöhrle
CD 1: 6
Soloist - bass: Jens Hamann
CD 1: 1, 9
Thomas Scharr
CD 1: 14
Dominik Wörner
CD 1: 6, 12, 16
Ensemble 94
solistenensemble stimmkunst
Conductor: Kay Johannsen

Лог создания рипа

Exact Audio Copy V1.0 beta 3 from 29. August 2011
EAC extraction logfile from 6. December 2014, 11:20
solistenensemble stimmkunst, Ensemble 94/Kay Johannsen / Noël - Christmas cantatas
Used drive : hp CDDVDW TS-L633N Adapter: 1 ID: 0
Read mode : Secure
Utilize accurate stream : Yes
Defeat audio cache : Yes
Make use of C2 pointers : No
Read offset correction : 6
Overread into Lead-In and Lead-Out : No
Fill up missing offset samples with silence : Yes
Delete leading and trailing silent blocks : No
Null samples used in CRC calculations : Yes
Used interface : Native Win32 interface for Win NT & 2000
Gap handling : Appended to previous track
Used output format : User Defined Encoder
Selected bitrate : 1024 kBit/s
Quality : High
Add ID3 tag : No
Command line compressor : C:\Program Files (x86)\Exact Audio Copy\Flac\flac.exe
Additional command line options : -8 -V -T "ARTIST=%artist%" -T "TITLE=%title%" -T "ALBUM=%albumtitle%" -T "DATE=%year%" -T "TRACKNUMBER=%tracknr%" -T "GENRE=%genre%" -T "PERFORMER=%albuminterpret%" -T "COMPOSER=%composer%" %haslyrics%--tag-from-file=LYRICS="%lyricsfile%"%haslyrics% -T "ALBUMARTIST=%albumartist%" -T "DISCNUMBER=%cdnumber%" -T "TOTALDISCS=%totalcds%" -T "TOTALTRACKS=%numtracks%" -T "COMMENT=%comment%" %source% -o %dest%
TOC of the extracted CD
Track | Start | Length | Start sector | End sector
---------------------------------------------------------
1 | 0:00.02 | 7:12.72 | 2 | 32473
2 | 7:12.74 | 1:33.26 | 32474 | 39474
3 | 8:46.25 | 1:22.22 | 39475 | 45646
4 | 10:08.47 | 10:33.12 | 45647 | 93133
5 | 20:41.59 | 2:32.06 | 93134 | 104539
6 | 23:13.65 | 7:06.19 | 104540 | 136508
7 | 30:20.09 | 1:00.65 | 136509 | 141073
8 | 31:20.74 | 1:12.67 | 141074 | 146540
9 | 32:33.66 | 5:18.60 | 146541 | 170450
10 | 37:52.51 | 2:11.35 | 170451 | 180310
11 | 40:04.11 | 1:20.60 | 180311 | 186370
12 | 41:24.71 | 6:21.24 | 186371 | 214969
13 | 47:46.20 | 1:31.03 | 214970 | 221797
14 | 49:17.23 | 5:00.28 | 221798 | 244325
15 | 54:17.51 | 2:04.26 | 244326 | 253651
16 | 56:22.02 | 4:34.14 | 253652 | 274215
Track 1
Filename F:\MIMIC\Christmas 2014\Charpentier - Noël - Kay Johannsen\01 Canticum in nativitatem Domini (H 393).wav
Pre-gap length 0:00:02.02
Peak level 73.6 %
Extraction speed 2.6 X
Track quality 100.0 %
Test CRC 5595E7BE
Copy CRC 5595E7BE
Accurately ripped (confidence 3) [79DA3158] (AR v1)
Copy OK
Track 2
Filename F:\MIMIC\Christmas 2014\Charpentier - Noël - Kay Johannsen\02 O Créateur (H 531).wav
Pre-gap length 0:00:05.22
Peak level 38.9 %
Extraction speed 2.2 X
Track quality 100.0 %
Test CRC E8FE02F9
Copy CRC E8FE02F9
Accurately ripped (confidence 3) [D1672B20] (AR v1)
Copy OK
Track 3
Filename F:\MIMIC\Christmas 2014\Charpentier - Noël - Kay Johannsen\03 Autre Noël, laissez paître vos bêtes (H 531).wav
Pre-gap length 0:00:01.44
Peak level 32.4 %
Extraction speed 1.4 X
Track quality 99.8 %
Test CRC 0B7E2870
Copy CRC 0B7E2870
Accurately ripped (confidence 3) [F4B3E5CA] (AR v1)
Copy OK
Track 4
Filename F:\MIMIC\Christmas 2014\Charpentier - Noël - Kay Johannsen\04 In nativitate Domini (H 421).wav
Pre-gap length 0:00:05.42
Peak level 95.8 %
Extraction speed 3.3 X
Track quality 100.0 %
Test CRC B3A350D4
Copy CRC B3A350D4
Accurately ripped (confidence 3) [5116DEF3] (AR v1)
Copy OK
Track 5
Filename F:\MIMIC\Christmas 2014\Charpentier - Noël - Kay Johannsen\05 Noëls sur les instruments (H 534) - Les Bourgeois de Chastres.wav
Pre-gap length 0:00:03.41
Peak level 33.2 %
Extraction speed 2.3 X
Track quality 99.9 %
Test CRC C59E09AC
Copy CRC C59E09AC
Accurately ripped (confidence 3) [1F56FE13] (AR v1)
Copy OK
Track 6
Filename F:\MIMIC\Christmas 2014\Charpentier - Noël - Kay Johannsen\06 Magnificat (H 80).wav
Pre-gap length 0:00:05.08
Peak level 81.1 %
Extraction speed 3.3 X
Track quality 99.9 %
Test CRC E09A4668
Copy CRC E09A4668
Accurately ripped (confidence 3) [C05B7854] (AR v1)
Copy OK
Track 7
Filename F:\MIMIC\Christmas 2014\Charpentier - Noël - Kay Johannsen\07 Noëls sur les instruments (H 534) - Joseph est bien marié.wav
Pre-gap length 0:00:04.09
Peak level 54.3 %
Extraction speed 2.6 X
Track quality 100.0 %
Test CRC 239F7102
Copy CRC 239F7102
Accurately ripped (confidence 3) [A1A2A796] (AR v1)
Copy OK
Track 8
Filename F:\MIMIC\Christmas 2014\Charpentier - Noël - Kay Johannsen\08 Noëls sur les instruments (H 534) - Où s'en vont ces guays bergers.wav
Pre-gap length 0:00:02.24
Peak level 40.9 %
Extraction speed 2.8 X
Track quality 100.0 %
Test CRC 0091BEDF
Copy CRC 0091BEDF
Accurately ripped (confidence 3) [763BDE6F] (AR v1)
Copy OK
Track 9
Filename F:\MIMIC\Christmas 2014\Charpentier - Noël - Kay Johannsen\09 In circumcisione Domini (H 316).wav
Pre-gap length 0:00:04.68
Peak level 47.5 %
Extraction speed 4.0 X
Track quality 100.0 %
Test CRC 94CE12B3
Copy CRC 94CE12B3
Accurately ripped (confidence 3) [C645393E] (AR v1)
Copy OK
Track 10
Filename F:\MIMIC\Christmas 2014\Charpentier - Noël - Kay Johannsen\10 Noëls sur les instruments (H 534) - Or nous dites Marie.wav
Pre-gap length 0:00:04.30
Peak level 54.3 %
Extraction speed 2.5 X
Track quality 99.9 %
Test CRC A7E15323
Copy CRC A7E15323
Accurately ripped (confidence 3) [47D5812C] (AR v1)
Copy OK
Track 11
Filename F:\MIMIC\Christmas 2014\Charpentier - Noël - Kay Johannsen\11 A la venue de Noël (H 531).wav
Pre-gap length 0:00:02.03
Peak level 56.6 %
Extraction speed 3.1 X
Track quality 100.0 %
Test CRC F1DC083E
Copy CRC F1DC083E
Accurately ripped (confidence 3) [C75B6B19] (AR v1)
Copy OK
Track 12
Filename F:\MIMIC\Christmas 2014\Charpentier - Noël - Kay Johannsen\12 Pour la fête de l'Epiphanie (H 395).wav
Pre-gap length 0:00:05.03
Peak level 77.7 %
Extraction speed 4.4 X
Track quality 100.0 %
Test CRC 3D54695F
Copy CRC 3D54695F
Accurately ripped (confidence 3) [679ED5A5] (AR v1)
Copy OK
Track 13
Filename F:\MIMIC\Christmas 2014\Charpentier - Noël - Kay Johannsen\13 Noëls sur les instruments (H 534) - Une jeune pucelle.wav
Pre-gap length 0:00:05.08
Peak level 32.6 %
Extraction speed 3.4 X
Track quality 100.0 %
Test CRC B4BC52E6
Copy CRC B4BC52E6
Accurately ripped (confidence 4) [7B4C8941] (AR v1)
Copy OK
Track 14
Filename F:\MIMIC\Christmas 2014\Charpentier - Noël - Kay Johannsen\14 In festo purificationis (H 318).wav
Pre-gap length 0:00:04.49
Peak level 66.0 %
Extraction speed 4.5 X
Track quality 100.0 %
Test CRC 61C8EC28
Copy CRC 61C8EC28
Accurately ripped (confidence 4) [40CCBACC] (AR v1)
Copy OK
Track 15
Filename F:\MIMIC\Christmas 2014\Charpentier - Noël - Kay Johannsen\15 Vous qui désirez sans fin (H 531).wav
Pre-gap length 0:00:04.29
Peak level 32.6 %
Extraction speed 3.9 X
Track quality 100.0 %
Test CRC 9A15C000
Copy CRC 9A15C000
Accurately ripped (confidence 4) [2347EEA6] (AR v1)
Copy OK
Track 16
Filename F:\MIMIC\Christmas 2014\Charpentier - Noël - Kay Johannsen\16 In nativitatem Domini canticum (H 314).wav
Pre-gap length 0:00:05.09
Peak level 89.6 %
Extraction speed 4.6 X
Track quality 100.0 %
Test CRC 5D11E4FD
Copy CRC 5D11E4FD
Accurately ripped (confidence 4) [108AC7A4] (AR v1)
Copy OK
All tracks accurately ripped
No errors occurred
End of status report
==== Log checksum 69F2081160E63D4F7BDE9A1394D5EDF961571896DA55B6004ACF6B2DD09BEECF ====

Содержание индексной карты (.CUE)

REM GENRE Classical
REM DATE 2008
REM DISCID F80E4810
REM COMMENT "ExactAudioCopy v1.0b3"
PERFORMER "solistenensemble stimmkunst, Ensemble 94/Kay Johannsen"
TITLE "Noel - Christmas cantatas"
FILE "01 Canticum in nativitatem Domini (H 393).wav" WAVE
TRACK 01 AUDIO
TITLE "Canticum in nativitatem Domini (H 393)"
PERFORMER "solistenensemble stimmkunst, Ensemble 94/Kay Johannsen"
FLAGS DCP
PREGAP 00:00:02
INDEX 01 00:00:00
TRACK 02 AUDIO
TITLE "O Createur (H 531)"
PERFORMER "solistenensemble stimmkunst, Ensemble 94/Kay Johannsen"
FLAGS DCP
INDEX 00 07:07:50
FILE "02 O Createur (H 531).wav" WAVE
INDEX 01 00:00:00
TRACK 03 AUDIO
TITLE "Autre Noel, laissez paоtre vos bкtes (H 531)"
PERFORMER "solistenensemble stimmkunst, Ensemble 94/Kay Johannsen"
FLAGS DCP
INDEX 00 01:31:57
FILE "03 Autre Noel, laissez paоtre vos bкtes (H 531).wav" WAVE
INDEX 01 00:00:00
TRACK 04 AUDIO
TITLE "In nativitate Domini (H 421)"
PERFORMER "solistenensemble stimmkunst, Ensemble 94/Kay Johannsen"
FLAGS DCP
INDEX 00 01:16:55
FILE "04 In nativitate Domini (H 421).wav" WAVE
INDEX 01 00:00:00
TRACK 05 AUDIO
TITLE "Noels sur les instruments (H 534) - Les Bourgeois de Chastres"
PERFORMER "solistenensemble stimmkunst, Ensemble 94/Kay Johannsen"
FLAGS DCP
INDEX 00 10:29:46
FILE "05 Noels sur les instruments (H 534) - Les Bourgeois de Chastres.wav" WAVE
INDEX 01 00:00:00
TRACK 06 AUDIO
TITLE "Magnificat (H 80)"
PERFORMER "solistenensemble stimmkunst, Ensemble 94/Kay Johannsen"
FLAGS DCP
INDEX 00 02:26:73
FILE "06 Magnificat (H 80).wav" WAVE
INDEX 01 00:00:00
TRACK 07 AUDIO
TITLE "Noels sur les instruments (H 534) - Joseph est bien marie"
PERFORMER "solistenensemble stimmkunst, Ensemble 94/Kay Johannsen"
FLAGS DCP
INDEX 00 07:02:10
FILE "07 Noels sur les instruments (H 534) - Joseph est bien mariй.wav" WAVE
INDEX 01 00:00:00
TRACK 08 AUDIO
TITLE "Noels sur les instruments (H 534) - Oщ s'en vont ces guays bergers"
PERFORMER "solistenensemble stimmkunst, Ensemble 94/Kay Johannsen"
FLAGS DCP
INDEX 00 00:58:41
FILE "08 Noels sur les instruments (H 534) - Oщ s'en vont ces guays bergers.wav" WAVE
INDEX 01 00:00:00
TRACK 09 AUDIO
TITLE "In circumcisione Domini (H 316)"
PERFORMER "solistenensemble stimmkunst, Ensemble 94/Kay Johannsen"
FLAGS DCP
INDEX 00 01:07:74
FILE "09 In circumcisione Domini (H 316).wav" WAVE
INDEX 01 00:00:00
TRACK 10 AUDIO
TITLE "Noels sur les instruments (H 534) - Or nous dites Marie"
PERFORMER "solistenensemble stimmkunst, Ensemble 94/Kay Johannsen"
FLAGS DCP
INDEX 00 05:14:30
FILE "10 Noels sur les instruments (H 534) - Or nous dites Marie.wav" WAVE
INDEX 01 00:00:00
TRACK 11 AUDIO
TITLE "A la venue de Noel (H 531)"
PERFORMER "solistenensemble stimmkunst, Ensemble 94/Kay Johannsen"
FLAGS DCP
INDEX 00 02:09:32
FILE "11 A la venue de Noel (H 531).wav" WAVE
INDEX 01 00:00:00
TRACK 12 AUDIO
TITLE "Pour la fete de l'Epiphanie (H 395)"
PERFORMER "solistenensemble stimmkunst, Ensemble 94/Kay Johannsen"
FLAGS DCP
INDEX 00 01:15:57
FILE "12 Pour la fete de l'Epiphanie (H 395).wav" WAVE
INDEX 01 00:00:00
TRACK 13 AUDIO
TITLE "Noels sur les instruments (H 534) - Une jeune pucelle"
PERFORMER "solistenensemble stimmkunst, Ensemble 94/Kay Johannsen"
FLAGS DCP
INDEX 00 06:16:16
FILE "13 Noels sur les instruments (H 534) - Une jeune pucelle.wav" WAVE
INDEX 01 00:00:00
TRACK 14 AUDIO
TITLE "In festo purificationis (H 318)"
PERFORMER "solistenensemble stimmkunst, Ensemble 94/Kay Johannsen"
FLAGS DCP
INDEX 00 01:26:29
FILE "14 In festo purificationis (H 318).wav" WAVE
INDEX 01 00:00:00
TRACK 15 AUDIO
TITLE "Vous qui desirez sans fin (H 531)"
PERFORMER "solistenensemble stimmkunst, Ensemble 94/Kay Johannsen"
FLAGS DCP
INDEX 00 04:55:74
FILE "15 Vous qui desirez sans fin (H 531).wav" WAVE
INDEX 01 00:00:00
TRACK 16 AUDIO
TITLE "In nativitatem Domini canticum (H 314)"
PERFORMER "solistenensemble stimmkunst, Ensemble 94/Kay Johannsen"
FLAGS DCP
INDEX 00 01:59:17
FILE "16 In nativitatem Domini canticum (H 314).wav" WAVE
INDEX 01 00:00:00
[teatrix.ru].t20110.torrent 
Торрент: Зарегистрирован [ 2016-03-19 00:55 ] · 3B939049EEB09566D609C7DB4C2D1B8906F66C2E

Скачать .torrent

Скачать

15 KB

Статус: проверено
Скачан: 0 раз
Размер: 320 MB
terms.php



Быстрый ответ

Имя:

      
Для отправки сообщений необходимо включить JavaScript
Показать сообщения:    

Текущее время: 03-Дек 03:23

Часовой пояс: UTC + 3


Вы можете начинать темы
Вы можете отвечать на сообщения
Вы не можете редактировать свои сообщения
Вы не можете удалять свои сообщения
Вы не можете голосовать в опросах
Вы не можете прикреплять файлы к сообщениям
Вы можете скачивать файлы