Лучший шеф-повар в мире / Verdens bedste kok (Расмус Динесен / Rasmus Dinesen) [2011, Док. фильм, SATRip]


Статистика раздачи [Обновить пиров]
Размер:  366 MB   |    Зарегистрирован:  8 месяцев 17 дней   |    Скачан:  0 раз

Полного источника не было: Никогда

Личеров:  50  [  0 KB/s  ]   Подробная статистика пиров
 
   
 
 
 

[Цитировать]

Лучший шеф-повар в мире / Verdens bedste kok
Дата/Год выпуска: 2011
Страна: Дания
Жанр: Док. фильм
Продолжительность: 00:43:05
Перевод: Субтитры
Русские субтитры: есть
Формат субтитров: hardsub (неотключаемые)
Оригинальная аудиодорожка: датский
Режиссер: Расмус Динесен / Rasmus Dinesen
Описание: Документальный фильм о знаменитом датском шеф-поваре Расмусе Кофоеде и его участии в одном из престижных конкурсов ...

О фамилии Кофоед
Древняя голландско-датская фамилия Koefoed / Koevoet переводилась как "коровьи ноги". Так обычно называли человека с косолапостью или с каким-либо уродством ноги. Обратите внимание, что в англоязычном мире произносят Кофоуд. Именно так, например, американцы читают фамилию известной актрисы Шоны Кофоед
SATRip от : Твид
Доп. информация: Любезно предоставлено клубом Fenix
Сэмпл: http://multi-up.com/1026644
качество: SATRip
формат: AVI
Видео: XviD, 1055 kb/s, 640x512, 25 fps, 0.129 bits/pixel
Аудио: 0x0055(MP3) ID'd as MPEG-1 Layer 3, 128 kb/s (2/ch, stereo) CBR, 48000 Hz - Датский

MediaInfo

Общее
Полное имя : D:\Fillms-1\Luchshij shef-povar.SAT-rip.by.Твид.fenixclub.avi
Формат : AVI
Формат/Информация : Audio Video Interleave
Размер файла : 366 Мбайт
Продолжительность : 43 м.
Общий поток : 1189 Кбит/сек
Программа кодирования : VirtualDubMod 1.5.10.2 (build 2540/release)
Библиотека кодирования : VirtualDubMod build 2540/release
Видео
Идентификатор : 0
Формат : MPEG-4 Visual
Профиль формата : Simple@L3
Параметр BVOP формата : 2
Параметр QPel формата : Нет
Параметр GMC формата : Без точки перехода
Параметр матрицы формата : Default (H.263)
Идентификатор кодека : XVID
Идентификатор кодека/Подсказка : XviD
Продолжительность : 43 м.
Битрейт : 1051 Кбит/сек
Ширина : 640 пикселей
Высота : 512 пикселей
Соотношение сторон : 5:4
Частота кадров : 25,000 кадров/сек
Цветовое пространство : YUV
Субдискретизация насыщенности : 4:2:0
Битовая глубина : 8 бит
Тип развёртки : Прогрессивная
Метод сжатия : С потерями
Бит/(Пиксели*Кадры) : 0.128
Размер потока : 324 Мбайт (88%)
Библиотека кодирования : XviD 1.0.0 RC4 (Hola) (UTC 2004-04-05)
Аудио
Идентификатор : 1
Формат : MPEG Audio
Версия формата : Version 1
Профиль формата : Layer 3
Режим : Joint stereo
Расширение режима : MS Stereo
Идентификатор кодека : 55
Идентификатор кодека/Подсказка : MP3
Продолжительность : 43 м.
Вид битрейта : Постоянный
Битрейт : 128 Кбит/сек
Каналы : 2 канала
Частота : 48,0 КГц
Метод сжатия : С потерями
Размер потока : 39,4 Мбайт (11%)
Выравнивание : Разделение по промежуткам
Продолжительность промежутка : 40 мс. (1,00 видеокадр)
Время предзагрузки промежутка : 500 мс.

Скриншоты

[teatrix.ru].t20113.torrent 
Торрент: Зарегистрирован [ 2016-03-19 00:52 ] · A2681412C5488B05D254217FA389D97B7424233A

Скачать .torrent

Скачать

15 KB

Статус: проверено
Скачан: 0 раз
Размер: 366 MB
terms.php



Быстрый ответ

Имя:

      
Для отправки сообщений необходимо включить JavaScript
Показать сообщения:    

Текущее время: 05-Дек 23:41

Часовой пояс: UTC + 3


Вы можете начинать темы
Вы можете отвечать на сообщения
Вы не можете редактировать свои сообщения
Вы не можете удалять свои сообщения
Вы не можете голосовать в опросах
Вы не можете прикреплять файлы к сообщениям
Вы можете скачивать файлы