Николай Караченцов. "Я здесь!" Юбилейный вечер в театре Ленком (Елена Никитан) [2014 г., Юбилейный вечер, SATRip] Московский Государственный театр "Ленком"


Статистика раздачи [Обновить пиров]
Размер:  1.24 GB   |    Зарегистрирован:  10 месяцев 3 дня   |    Скачан:  0 раз

Полного источника не было: Никогда

 
   
 
 
 

[Цитировать]

Николай Караченцов. "Я здесь!" Юбилейный вечер в театре Ленком К 70-летию Николая Петровича Караченцова.
(27 октября 1944)

Название театра: Московский Государственный театр "Ленком".
Год выпуска: 2014.
Жанр: Юбилейный вечер.
Продолжительность: 01:31:33.
Авторы вечера: Иван Агапов, Ирина Мусаэлян, Сергей Дьячковский, Дмитрий Грошев.
Режиссёр телеверсии: Елена Никитан.
Ведущие вечера:
Анна Большова, Ольга Кабо, Максим Дунаевский.
Участвуют:
Александр Калягин, Инна Чурикова, Константин Райкин (и студенты), Вениамин Смехов, Алла Сурикова, Эммануил Виторган, Шамиль Тарпищев, Лариса Долина, Тамара Гвердцители, Дмитрий Харатьян, Иосиф Кобзон, Любовь Казарновская, Лев Лещенко, Пётр Караченцов, Янина Караченцова, Лора Квинт, Анастасия Макеева, Глеб Матвейчук, Илья Резник, Юрий Ряшенцев, учащиеся Школы искусств Караченцова, артисты Театра "Ленком" и другие.
Описание:
Николай Караченцов отметил своё 70-летие в театре "Ленком", где он работал всю свою жизнь вплоть до страшной катастрофы, которая прервала его творческий путь. "Отец так ждёт этой встречи с друзьями, так хочет сказать им: "Я здесь, я с вами, я вас люблю". Поэтому мы и назвали этот вечер: "Я здесь", - сказал сын артиста Андрей Караченцов. "Я здесь" - это и слова из песни "Звезды сошли с небес", самой последней песни, которую записал папа."
Дополнительная информация:
Страна: Россия .
Выпущено: © ГТРК "Культура".
Художник-постановщик: Дмитрий Кудряшов.
Музыка: Алексея Рыбникова, Геннадия Гладкова, Анатолия Кальварского, Максима Дунаевского, Лоры Квинт, Екатерины Суржиковой.
Стихи: Андрея Вознесенского, Леонида Дербенева, Юлия Кима, Олега Рябоконя, Лоры Квинт, Екатерины Суржиковой.
Ансамбль "Аракс" под руководством Сергея Рудницкого.
Оператор-постановщик: Владимир Иванов.
Вечер состоялся 26 октября 2014 года.

Трансляция ГТРК "Культура" в 18:50 02.11.2014 г.

Релиз
Рип lesik689.
Качество видео:...SATRip
Формат:.................AVI
Видео:..720x400 (1.80:1), 25 fps, XviD MPEG-4 ~1803 kbps avg, 0.25 bit/pixel
Аудио:..48 kHz, MPEG Layer 3, 2 ch, ~128.00 kbps avg

Отчет MI

Общее
Полное имя : Nikolay.Karachentsov.Ya.zdes'.Yubileyny.vecher.v.teatre.Lenkom.2014.XviD.SATRip.fenixclub.avi
Формат : AVI
Формат/Информация : Audio Video Interleave
Размер файла : 1,24 Гбайт
Продолжительность : 1 ч. 31 м.
Общий поток : 1941 Кбит/сек
Программа кодирования : VirtualDubMod 1.5.10.2 (build 2542/release)
Библиотека кодирования : VirtualDubMod build 2542/release
Видео
Идентификатор : 0
Формат : MPEG-4 Visual
Профиль формата : Advanced Simple@L5
Параметр BVOP формата : 2
Параметр QPel формата : Нет
Параметр GMC формата : Без точки перехода
Параметр матрицы формата : Default (MPEG)
Режим смешивания : Сжатый битовый поток
Идентификатор кодека : XVID
Идентификатор кодека/Подсказка : XviD
Продолжительность : 1 ч. 31 м.
Битрейт : 1804 Кбит/сек
Ширина : 720 пикселей
Высота : 400 пикселей
Соотношение сторон : 5:4
Соотношение сторон в оригинале : 16:9
Частота кадров : 25,000 кадров/сек
Цветовое пространство : YUV
Субдискретизация насыщенности : 4:2:0
Битовая глубина : 8 бит
Тип развёртки : Прогрессивная
Метод сжатия : С потерями
Бит/(Пиксели*Кадры) : 0.251
Размер потока : 1,15 Гбайт (93%)
Библиотека кодирования : XviD 64
Аудио
Идентификатор : 1
Формат : MPEG Audio
Версия формата : Version 1
Профиль формата : Layer 3
Режим : Joint stereo
Расширение режима : MS Stereo
Идентификатор кодека : 55
Идентификатор кодека/Подсказка : MP3
Продолжительность : 1 ч. 31 м.
Вид битрейта : Постоянный
Битрейт : 128 Кбит/сек
Каналы : 2 канала
Частота : 48,0 КГц
Метод сжатия : С потерями
Размер потока : 83,8 Мбайт (7%)
Выравнивание : Разделение по промежуткам
Продолжительность промежутка : 40 мс. (1,00 видеокадр)
Время предзагрузки промежутка : 500 мс.

Скриншот с названием вечера

Скриншоты


Альтернативный хост


[teatrix.ru].t20116.torrent 
Торрент: Зарегистрирован [ 2016-03-19 00:54 ] · F1D99533C7BB24FF8C91F8968E533EAE00D3A54F

Скачать .torrent

Скачать

13 KB

Статус: проверено
Скачан: 0 раз
Размер: 1.24 GB
terms.php



Быстрый ответ

Имя:

      
Для отправки сообщений необходимо включить JavaScript
Показать сообщения:    

Текущее время: 22-Янв 04:45

Часовой пояс: UTC + 3


Вы можете начинать темы
Вы можете отвечать на сообщения
Вы не можете редактировать свои сообщения
Вы не можете удалять свои сообщения
Вы не можете голосовать в опросах
Вы не можете прикреплять файлы к сообщениям
Вы можете скачивать файлы