Амфитрион (Борис Луценко) [2007 г., Беларусь, Интимные сцены из жизни людей и богов, TVRip] Национальный драматический театр им. М.Горького (Русский драматический театр), г. Минск


 

[Цитировать]

Амфитрион Название театра: Национальный драматический театр им. М.Горького (Русский драматический театр), г. Минск.
Год выпуска: 2007.
Страна: Беларусь .
Жанр: Интимные сцены из жизни людей и богов.
Продолжительность: 02:06:50.
Язык: русский.
Режиссеры: народный артист Республики Беларусь Борис Луценко, Венедикт Расстриженков.
Действующие лица и исполнители:
Юпитер – Сергей Чекерес,
Меркурий – заслуженный артист Республики Беларусь Андрей Душечкин,
Амфитрион – Алексей Шедько,
Алкмена, его жена – Анна Пинкевич,
Созий – Александр Суцковер,
Харита, его жена – Лина Цветкова,
Леда – Оксана Лесная,
Ночь – Татьяна Бовкалова.
В спектакле также заняты:
Александра Богданова, Клементина Батенкова, Павел Вишняков, Владимир Глотов, Василий Гречухин, Марина Денисова, Олег Коц, Андрей Кривецкий, Дмитрий Рачковский, Анна Южакова.
Спектакль вела: Наталья Герасимович.
О спектакле:
Интимные сцены из жизни людей и богов.
По мотивам древнегреческих мифов и произведений Плавта, Жана-Батиста Мольера, Генриха фон Клейста, Жана Жироду, Петера Хакса.
Говорят, что раньше хлеб был вкуснее, небо – голубее, а боги – ближе к людям... Иногда они оказывались настолько близко, что на Земле рождался новый великий герой...

Дополнительная информация:
Выпущено: © Белтелерадиокомпания.
Режиссёр-постановщик: народный артист Республики Беларусь Борис Луценко.
Режиссёр: Венедикт Расстриженков.
Инсценировка: народный артист Республики Беларусь Борис Луценко, Ванкарем Никифорович.
Художник-постановщик: Евгений Волков.
Художник по костюмам: Татьяна Лисовенко.
Композитор: Владимир Кондрусевич.
Балетмейстер: Галина Шиленкова-Воронова.
В спектакле прозвучали песни на стихи поэтов античности и средневековья.
Художественный руководитель театра: народный артист Республики Беларусь, академик Международной академии театра Борис Луценко.
Премьера спектакля состоялась 6 декабря 1992 года.

О спектакле.
Релиз
Спасибо AND01AND за исходный материал.

Качество видео:...TVRip
Формат:.................AVI
Видео:..688x512 (1.34:1), 25 fps, XviD MPEG-4 ~1507 kbps avg, 0.17 bit/pixel
Аудио:..48 kHz, MPEG Layer 3, 2 ch, ~128.00 kbps avg

Отчет MI

Общее
Полное имя : Amfitrion_Nacional'nyj.DT.im.Gor'kogo.Minsk.2007.XviD.TVRip.fenixclub.avi
Формат : AVI
Формат/Информация : Audio Video Interleave
Размер файла : 1,46 Гбайт
Продолжительность : 2 ч. 6 м.
Общий поток : 1646 Кбит/сек
Программа кодирования : VirtualDubModRus 1.5.10.2 (build 2542/release)
Библиотека кодирования : VirtualDub build 32842/release
Видео
Идентификатор : 0
Формат : MPEG-4 Visual
Профиль формата : Advanced Simple@L5
Параметр BVOP формата : 2
Параметр QPel формата : Нет
Параметр GMC формата : Без точки перехода
Параметр матрицы формата : Default (H.263)
Режим смешивания : Сжатый битовый поток
Идентификатор кодека : XVID
Идентификатор кодека/Подсказка : XviD
Продолжительность : 2 ч. 6 м.
Битрейт : 1508 Кбит/сек
Ширина : 688 пикселей
Высота : 512 пикселей
Соотношение сторон : 4:3
Частота кадров : 25,000 кадров/сек
Цветовое пространство : YUV
Субдискретизация насыщенности : 4:2:0
Битовая глубина : 8 бит
Тип развёртки : Прогрессивная
Метод сжатия : С потерями
Бит/(Пиксели*Кадры) : 0.171
Размер потока : 1,34 Гбайт (92%)
Библиотека кодирования : XviD 1.2.1 (UTC 2008-12-04)
Аудио
Идентификатор : 1
Формат : MPEG Audio
Версия формата : Version 1
Профиль формата : Layer 3
Режим : Joint stereo
Расширение режима : MS Stereo
Идентификатор кодека : 55
Идентификатор кодека/Подсказка : MP3
Продолжительность : 2 ч. 6 м.
Вид битрейта : Постоянный
Битрейт : 128 Кбит/сек
Каналы : 2 канала
Частота : 48,0 КГц
Метод сжатия : С потерями
Задержка видео : 100 мс.
Размер потока : 116 Мбайт (8%)
Выравнивание : Разделение по промежуткам
Продолжительность промежутка : 40 мс. (1,00 видеокадр)
Время предзагрузки промежутка : 500 мс.

Скриншоты

Альтернативный хост




Показать сообщения:    

Текущее время: 19-Янв 16:05

Часовой пояс: UTC + 3


Вы не можете начинать темы
Вы не можете отвечать на сообщения
Вы не можете редактировать свои сообщения
Вы не можете удалять свои сообщения
Вы не можете голосовать в опросах
Вы не можете прикреплять файлы к сообщениям
Вы не можете скачивать файлы