(Classical) Johann Sebastian Bach - Ich elender Mensch - Leipzig Cantatas (BWV 44, 48, 73, 109) - Mields, Guillon, Hobbs, Kooij; Collegium Vocale Gent, Philippe Herreweghe - 2013, FLAC (image+.cue) lossless


Статистика раздачи [Обновить пиров]
Размер:  293 MB   |    Зарегистрирован:  8 месяцев 18 дней   |    Скачан:  0 раз

Полного источника не было: Никогда

Личеров:  33  [  0 KB/s  ]   Подробная статистика пиров
 
   
 
 
 

[Цитировать]

Johann Sebastian Bach - Ich elender Mensch - Leipzig Cantatas (BWV 44, 48, 73, 109) - Mields, Guillon, Hobbs, Kooij; Collegium Vocale Gent, Philippe Herreweghe
Жанр: Classical
Год издания диска: 2013
Издатель (лейбл): PHI
Номер по каталогу: LPH 012
Дата записи: 2013
Аудиокодек: FLAC
Тип рипа: image+.cue
Битрейт аудио: lossless
Продолжительность: 68:30
Источник: собственный рип
Наличие сканов в содержимом раздачи: да
Треклист:
Johann Sebastian Bach (1685-1750)
[1]-[7] Cantata BWV 48 - Ich elender Mensch, wer wird mich erlösen
[8]-[12] Cantata BWV 73 - Herr, wie du willt, so schick’s mit mir
[13]-[19] Cantata BWV 44 - Sie werden euch in den Bann tun
[20]-[25] Cantata BWV 109 - Ich glaube, lieber Herr, hilf meinem Unglauben!
Johann Schelle (1648-1701)
[26] Komm, Jesu, komm
Исполнители:
Dorothee Mields soprano
Damien Guillon alto
Thomas Hobbs tenor
Peter Kooij bass
Collegium Vocale Gent
Philippe Herreweghe

Лог создания рипа

Exact Audio Copy V1.0 beta 3 from 29. August 2011
EAC extraction logfile from 11. January 2015, 1:35
Collegium Vocale Gent, Philippe Herreweghe / Bach - Ich elender Mensch - Cantatas from the first Leipzig cycle
Used drive : HL-DT-STDVDRAM GU70N Adapter: 0 ID: 0
Read mode : Secure
Utilize accurate stream : Yes
Defeat audio cache : Yes
Make use of C2 pointers : No
Read offset correction : 48
Overread into Lead-In and Lead-Out : No
Fill up missing offset samples with silence : Yes
Delete leading and trailing silent blocks : No
Null samples used in CRC calculations : Yes
Used interface : Native Win32 interface for Win NT & 2000
Used output format : User Defined Encoder
Selected bitrate : 128 kBit/s
Quality : High
Add ID3 tag : No
Command line compressor : C:\Program Files (x86)\Exact Audio Copy\Flac\flac.exe
Additional command line options : -V -8 -T "Date=%year%" -T "Genre=%genre%" %source%
TOC of the extracted CD
Track | Start | Length | Start sector | End sector
---------------------------------------------------------
1 | 0:00.00 | 4:56.60 | 0 | 22259
2 | 4:56.60 | 1:11.18 | 22260 | 27602
3 | 6:08.03 | 0:38.74 | 27603 | 30526
4 | 6:47.02 | 2:21.04 | 30527 | 41105
5 | 9:08.06 | 0:41.32 | 41106 | 44212
6 | 9:49.38 | 2:39.39 | 44213 | 56176
7 | 12:29.02 | 1:01.27 | 56177 | 60778
8 | 13:30.29 | 4:01.49 | 60779 | 78902
9 | 17:32.03 | 3:37.46 | 78903 | 95223
10 | 21:09.49 | 0:31.29 | 95224 | 97577
11 | 21:41.03 | 3:26.73 | 97578 | 113100
12 | 25:08.01 | 0:57.71 | 113101 | 117446
13 | 26:05.72 | 2:21.33 | 117447 | 128054
14 | 28:27.30 | 1:34.25 | 128055 | 135129
15 | 30:01.55 | 4:09.14 | 135130 | 153818
16 | 34:10.69 | 1:14.34 | 153819 | 159402
17 | 35:25.28 | 0:48.10 | 159403 | 163012
18 | 36:13.38 | 4:58.42 | 163013 | 185404
19 | 41:12.05 | 0:51.35 | 185405 | 189264
20 | 42:03.40 | 6:04.10 | 189265 | 216574
21 | 48:07.50 | 1:21.29 | 216575 | 222678
22 | 49:29.04 | 5:35.55 | 222679 | 247858
23 | 55:04.59 | 0:34.73 | 247859 | 250481
24 | 55:39.57 | 4:41.59 | 250482 | 271615
25 | 60:21.41 | 3:53.26 | 271616 | 289116
26 | 64:14.67 | 4:13.54 | 289117 | 308145
Range status and errors
Selected range
Filename C:\temp\Bach - Ich elender Mensch - Collegium Vocale Gent, Herreweghe\Bach - Ich elender Mensch.wav
Peak level 94.3 %
Extraction speed 2.3 X
Range quality 100.0 %
Test CRC 118D117F
Copy CRC 118D117F
Copy OK
No errors occurred
AccurateRip summary
Track 1 accurately ripped (confidence 3) [E64B3414] (AR v2)
Track 2 accurately ripped (confidence 3) [6A9EB555] (AR v2)
Track 3 accurately ripped (confidence 3) [7CD16CD6] (AR v2)
Track 4 accurately ripped (confidence 3) [D77CAAAC] (AR v2)
Track 5 accurately ripped (confidence 3) [48F6F4E7] (AR v2)
Track 6 accurately ripped (confidence 3) [05A27DF4] (AR v2)
Track 7 accurately ripped (confidence 3) [83A033AF] (AR v2)
Track 8 accurately ripped (confidence 3) [B7B4107B] (AR v2)
Track 9 accurately ripped (confidence 3) [F95B7CDD] (AR v2)
Track 10 accurately ripped (confidence 3) [165363C5] (AR v2)
Track 11 accurately ripped (confidence 3) [D799E8C2] (AR v2)
Track 12 accurately ripped (confidence 3) [F2E2B1B0] (AR v2)
Track 13 accurately ripped (confidence 3) [B3E183A8] (AR v2)
Track 14 accurately ripped (confidence 3) [BE8F754B] (AR v2)
Track 15 accurately ripped (confidence 3) [C21FAF9A] (AR v2)
Track 16 accurately ripped (confidence 3) [72425A50] (AR v2)
Track 17 accurately ripped (confidence 3) [DB4BED5E] (AR v2)
Track 18 accurately ripped (confidence 3) [558BD219] (AR v2)
Track 19 accurately ripped (confidence 3) [2ACC0889] (AR v2)
Track 20 accurately ripped (confidence 3) [5215CC82] (AR v2)
Track 21 accurately ripped (confidence 3) [78BD6AAD] (AR v2)
Track 22 accurately ripped (confidence 3) [6B9A9F37] (AR v2)
Track 23 accurately ripped (confidence 3) [6392BDE6] (AR v2)
Track 24 accurately ripped (confidence 3) [80DC73DA] (AR v2)
Track 25 accurately ripped (confidence 3) [53DEABA7] (AR v2)
Track 26 accurately ripped (confidence 3) [A0BC3676] (AR v2)
All tracks accurately ripped
End of status report
==== Log checksum 1D9CD3FE90DE42D3CDAF379EEBA2CB2332606704CF65D4A15A38353169A3127D ====
[teatrix.ru].t20118.torrent 
Торрент: Зарегистрирован [ 2016-03-19 00:54 ] · 061DD236528EB4BF23C4EF17D66C0C27A7BBB0CE

Скачать .torrent

Скачать

24 KB

Статус: проверено
Скачан: 0 раз
Размер: 293 MB
terms.php



Быстрый ответ

Имя:

      
Для отправки сообщений необходимо включить JavaScript
Показать сообщения:    

Текущее время: 06-Дек 11:15

Часовой пояс: UTC + 3


Вы можете начинать темы
Вы можете отвечать на сообщения
Вы не можете редактировать свои сообщения
Вы не можете удалять свои сообщения
Вы не можете голосовать в опросах
Вы не можете прикреплять файлы к сообщениям
Вы можете скачивать файлы