(Classical) Eduard Ivanovich Bagdasarian / Багдасарян - Piano and Violin Music: 24 Prelude, Rhapsody, Nocturne (Mikael Ayrapetyan, Vladimir Sergeev) - 2014, FLAC (tracks+.cue) lossless


 

[Цитировать]

Eduard Ivanovich Bagdasarian - Piano and Violin Music (Mikael Ayrapetyan, Vladimir Sergeev)
Жанр: Classical
Год выпуска диска: 2014
Страна-производитель диска: US
Издатель (лейбл): Grand Piano
Номер по каталогу: GP664
Аудиокодек: FLAC
Тип рипа: tracks+.cue
Битрейт аудио: lossless
Продолжительность: 00:57:12
Источник: собственный рип
Наличие сканов в содержимом раздачи: да
ID3-теги: да
Исполнители:
Mikael Ayrapetyan - piano
Vladimir Sergeev - violin
Треклист:
Eduard Ivanovich Bagdasarian
24 Preludes:
01. No. 1 in C Major (01:27)
02. No. 2 in A Minor (00:35)
03. No. 3 in G Major (00:38)
04. No. 4 in E Minor (01:18)
05. No. 5 in D Major (01:15)
06. No. 6 in B Minor (03:18)
07. No. 7 in A Major (02:13)
08. No. 8 in F-Sharp Minor (00:45)
09. No. 9 in E Major (01:11)
10. No. 10 in C-Sharp Minor (02:48)
11. No. 11 in B Major (01:53)
12. No. 12 in G-Sharp Minor (02:29)
13. No. 13 in F-Sharp Major (01:17)
14. No. 14 in E-Flat Minor (03:01)
15. No. 15 in D-Flat Major (01:11)
16. No. 16 in B-Flat Minor (01:01)
17. No. 17 in A-Flat Major (00:46)
18. No. 18 in F Minor (01:09)
19. No. 19 in E-Flat Major (01:23)
20. No. 20 in C Minor (03:35)
21. No. 21 in B-Flat Major (01:35)
22. No. 22 in G Minor (00:42)
23. No. 23 in F Major (00:34)
24. No. 24 in D Minor (03:36)
25. Rhapsody (version for violin and piano) (12:45)
26. Nocturne in A Major (04:47)

LOG EAC:

Exact Audio Copy V1.0 beta 3 from 29. August 2011
EAC extraction logfile from 18. January 2016, 22:31
Mikael Ayrapetyan, Vladimir Sergeev / Bagdasarian - Piano and Violin Music
Used drive : PIONEER DVD-RW DVR-221L Adapter: 2 ID: 0
Read mode : Secure
Utilize accurate stream : Yes
Defeat audio cache : Yes
Make use of C2 pointers : No
Read offset correction : 6
Overread into Lead-In and Lead-Out : No
Fill up missing offset samples with silence : Yes
Delete leading and trailing silent blocks : No
Null samples used in CRC calculations : Yes
Used interface : Installed external ASPI interface
Gap handling : Appended to previous track
Used output format : User Defined Encoder
Selected bitrate : 768 kBit/s
Quality : High
Add ID3 tag : No
Command line compressor : C:\Program Files\Exact Audio Copy\Flac\flac.exe
Additional command line options : -6 -V -T "ARTIST=%artist%" -T "TITLE=%title%" -T "ALBUM=%albumtitle%" -T "DATE=%year%" -T "TRACKNUMBER=%tracknr%" -T "GENRE=%genre%" -T "COMMENT=%comment%" -T "ALBUMARTIST=%albuminterpret%" -T "COMPOSER=%composer%" -T "DISCNUMBER=%cdnumber%" -T "TOTALDISCS=%totalcds%" -T "TOTALTRACKS=%numtracks%" %source% -o %dest%
TOC of the extracted CD
Track | Start | Length | Start sector | End sector
---------------------------------------------------------
1 | 0:00.00 | 1:27.19 | 0 | 6543
2 | 1:27.19 | 0:35.00 | 6544 | 9168
3 | 2:02.19 | 0:38.28 | 9169 | 12046
4 | 2:40.47 | 1:18.19 | 12047 | 17915
5 | 3:58.66 | 1:15.36 | 17916 | 23576
6 | 5:14.27 | 3:18.07 | 23577 | 38433
7 | 8:32.34 | 2:12.55 | 38434 | 48388
8 | 10:45.14 | 0:44.60 | 48389 | 51748
9 | 11:29.74 | 1:10.66 | 51749 | 57064
10 | 12:40.65 | 2:48.21 | 57065 | 69685
11 | 15:29.11 | 1:53.32 | 69686 | 78192
12 | 17:22.43 | 2:29.25 | 78193 | 89392
13 | 19:51.68 | 1:17.07 | 89393 | 95174
14 | 21:09.00 | 3:00.62 | 95175 | 108736
15 | 24:09.62 | 1:11.37 | 108737 | 114098
16 | 25:21.24 | 1:01.03 | 114099 | 118676
17 | 26:22.27 | 0:45.63 | 118677 | 122114
18 | 27:08.15 | 1:09.33 | 122115 | 127322
19 | 28:17.48 | 1:22.72 | 127323 | 133544
20 | 29:40.45 | 3:35.02 | 133545 | 149671
21 | 33:15.47 | 1:35.07 | 149672 | 156803
22 | 34:50.54 | 0:42.31 | 156804 | 159984
23 | 35:33.10 | 0:34.29 | 159985 | 162563
24 | 36:07.39 | 3:36.23 | 162564 | 178786
25 | 39:43.62 | 12:44.65 | 178787 | 236151
26 | 52:28.52 | 4:47.23 | 236152 | 257699
Track 1
Filename D:\EAC\01 - 24 Preludes. No. 1 in C Major.wav
Pre-gap length 0:00:02.00
Peak level 50.7 %
Extraction speed 3.6 X
Track quality 100.0 %
Test CRC 01654DA0
Copy CRC 01654DA0
Track not present in AccurateRip database
Copy OK
Track 2
Filename D:\EAC\02 - No. 2 in A Minor.wav
Peak level 35.3 %
Extraction speed 2.7 X
Track quality 100.0 %
Test CRC F502CE7B
Copy CRC F502CE7B
Track not present in AccurateRip database
Copy OK
Track 3
Filename D:\EAC\03 - No. 3 in G Major.wav
Peak level 27.9 %
Extraction speed 2.8 X
Track quality 100.0 %
Test CRC 6B1CD6C1
Copy CRC 6B1CD6C1
Track not present in AccurateRip database
Copy OK
Track 4
Filename D:\EAC\04 - No. 4 in E Minor.wav
Peak level 79.2 %
Extraction speed 3.9 X
Track quality 100.0 %
Test CRC 3D9692F8
Copy CRC 3D9692F8
Track not present in AccurateRip database
Copy OK
Track 5
Filename D:\EAC\05 - No. 5 in D Major.wav
Peak level 59.9 %
Extraction speed 4.1 X
Track quality 100.0 %
Test CRC F41744C0
Copy CRC F41744C0
Track not present in AccurateRip database
Copy OK
Track 6
Filename D:\EAC\06 - No. 6 in B Minor.wav
Peak level 79.0 %
Extraction speed 5.3 X
Track quality 100.0 %
Test CRC 89C5F72E
Copy CRC 89C5F72E
Track not present in AccurateRip database
Copy OK
Track 7
Filename D:\EAC\07 - No. 7 in A Major.wav
Peak level 82.0 %
Extraction speed 5.1 X
Track quality 100.0 %
Test CRC F21EC4B4
Copy CRC F21EC4B4
Track not present in AccurateRip database
Copy OK
Track 8
Filename D:\EAC\08 - No. 8 in F-Sharp Minor.wav
Peak level 34.9 %
Extraction speed 2.1 X
Track quality 99.7 %
Test CRC 5744EB34
Copy CRC 5744EB34
Track not present in AccurateRip database
Copy OK
Track 9
Filename D:\EAC\09 - No. 9 in E Major.wav
Peak level 33.9 %
Extraction speed 4.6 X
Track quality 100.0 %
Test CRC 5B8E4741
Copy CRC 5B8E4741
Track not present in AccurateRip database
Copy OK
Track 10
Filename D:\EAC\10 - No. 10 in C-Sharp Minor.wav
Peak level 74.5 %
Extraction speed 4.5 X
Track quality 99.9 %
Test CRC F183A090
Copy CRC F183A090
Track not present in AccurateRip database
Copy OK
Track 11
Filename D:\EAC\11 - No. 11 in B Major.wav
Peak level 83.6 %
Extraction speed 5.4 X
Track quality 100.0 %
Test CRC 0EBCC854
Copy CRC 0EBCC854
Track not present in AccurateRip database
Copy OK
Track 12
Filename D:\EAC\12 - No. 12 in G-Sharp Minor.wav
Peak level 74.4 %
Extraction speed 6.1 X
Track quality 100.0 %
Test CRC 268E50CE
Copy CRC 268E50CE
Track not present in AccurateRip database
Copy OK
Track 13
Filename D:\EAC\13 - No. 13 in F-Sharp Major.wav
Peak level 78.5 %
Extraction speed 5.3 X
Track quality 100.0 %
Test CRC 5385E577
Copy CRC 5385E577
Track not present in AccurateRip database
Copy OK
Track 14
Filename D:\EAC\14 - No. 14 in E-Flat Minor.wav
Peak level 81.8 %
Extraction speed 6.6 X
Track quality 100.0 %
Test CRC C3B070DB
Copy CRC C3B070DB
Track not present in AccurateRip database
Copy OK
Track 15
Filename D:\EAC\15 - No. 15 in D-Flat Major.wav
Peak level 40.9 %
Extraction speed 5.4 X
Track quality 100.0 %
Test CRC A488A226
Copy CRC A488A226
Track not present in AccurateRip database
Copy OK
Track 16
Filename D:\EAC\16 - No. 16 in B-Flat Minor.wav
Peak level 26.4 %
Extraction speed 3.1 X
Track quality 99.8 %
Test CRC 2367146C
Copy CRC 2367146C
Track not present in AccurateRip database
Copy OK
Track 17
Filename D:\EAC\17 - No. 17 in A-Flat Major.wav
Peak level 56.7 %
Extraction speed 2.6 X
Track quality 99.7 %
Test CRC E08E2603
Copy CRC E08E2603
Track not present in AccurateRip database
Copy OK
Track 18
Filename D:\EAC\18 - No. 18 in F Minor.wav
Peak level 52.1 %
Extraction speed 5.5 X
Track quality 100.0 %
Test CRC 31DC4EFE
Copy CRC 31DC4EFE
Track not present in AccurateRip database
Copy OK
Track 19
Filename D:\EAC\19 - No. 19 in E-Flat Major.wav
Peak level 77.2 %
Extraction speed 3.9 X
Track quality 99.8 %
Test CRC 97BC83DF
Copy CRC 97BC83DF
Track not present in AccurateRip database
Copy OK
Track 20
Filename D:\EAC\20 - No. 20 in C Minor.wav
Peak level 70.9 %
Extraction speed 7.4 X
Track quality 100.0 %
Test CRC 0B0B4333
Copy CRC 0B0B4333
Track not present in AccurateRip database
Copy OK
Track 21
Filename D:\EAC\21 - No. 21 in B-Flat Major.wav
Peak level 69.6 %
Extraction speed 6.5 X
Track quality 100.0 %
Test CRC 96A15759
Copy CRC 96A15759
Track not present in AccurateRip database
Copy OK
Track 22
Filename D:\EAC\22 - No. 22 in G Minor.wav
Peak level 50.0 %
Extraction speed 4.5 X
Track quality 100.0 %
Test CRC AB6E0DD7
Copy CRC AB6E0DD7
Track not present in AccurateRip database
Copy OK
Track 23
Filename D:\EAC\23 - No. 23 in F Major.wav
Peak level 23.1 %
Extraction speed 4.1 X
Track quality 100.0 %
Test CRC 081EBD9E
Copy CRC 081EBD9E
Track not present in AccurateRip database
Copy OK
Track 24
Filename D:\EAC\24 - No. 24 in D Minor.wav
Peak level 69.1 %
Extraction speed 7.9 X
Track quality 100.0 %
Test CRC 129F0F51
Copy CRC 129F0F51
Track not present in AccurateRip database
Copy OK
Track 25
Filename D:\EAC\25 - Rhapsody (version for violin and piano).wav
Peak level 64.0 %
Extraction speed 9.5 X
Track quality 100.0 %
Test CRC 70FBCEC8
Copy CRC 70FBCEC8
Track not present in AccurateRip database
Copy OK
Track 26
Filename D:\EAC\26 - Nocturne in A Major.wav
Peak level 45.3 %
Extraction speed 9.4 X
Track quality 100.0 %
Test CRC 68F7CC66
Copy CRC 68F7CC66
Track not present in AccurateRip database
Copy OK
None of the tracks are present in the AccurateRip database
No errors occurred
End of status report
==== Log checksum 9D82279D5ED832E42CD305432D2AE37FB550B3D35ECCEC122AE8AB64CEF9CD39 ====

LOG (.CUE):

REM GENRE Classical
REM DATE 2014
REM DISCID 590D6C1A
REM COMMENT "ExactAudioCopy v1.0b3"
PERFORMER "Mikael Ayrapetyan, Vladimir Sergeev"
TITLE "Bagdasarian - Piano and Violin Music"
FILE "01 - 24 Preludes. No. 1 in C Major.wav" WAVE
TRACK 01 AUDIO
TITLE "24 Preludes. No. 1 in C Major"
PERFORMER "Mikael Ayrapetyan, Vladimir Sergeev"
INDEX 01 00:00:00
FILE "02 - No. 2 in A Minor.wav" WAVE
TRACK 02 AUDIO
TITLE "No. 2 in A Minor"
PERFORMER "Mikael Ayrapetyan, Vladimir Sergeev"
INDEX 01 00:00:00
FILE "03 - No. 3 in G Major.wav" WAVE
TRACK 03 AUDIO
TITLE "No. 3 in G Major"
PERFORMER "Mikael Ayrapetyan, Vladimir Sergeev"
INDEX 01 00:00:00
FILE "04 - No. 4 in E Minor.wav" WAVE
TRACK 04 AUDIO
TITLE "No. 4 in E Minor"
PERFORMER "Mikael Ayrapetyan, Vladimir Sergeev"
INDEX 01 00:00:00
FILE "05 - No. 5 in D Major.wav" WAVE
TRACK 05 AUDIO
TITLE "No. 5 in D Major"
PERFORMER "Mikael Ayrapetyan, Vladimir Sergeev"
INDEX 01 00:00:00
FILE "06 - No. 6 in B Minor.wav" WAVE
TRACK 06 AUDIO
TITLE "No. 6 in B Minor"
PERFORMER "Mikael Ayrapetyan, Vladimir Sergeev"
INDEX 01 00:00:00
FILE "07 - No. 7 in A Major.wav" WAVE
TRACK 07 AUDIO
TITLE "No. 7 in A Major"
PERFORMER "Mikael Ayrapetyan, Vladimir Sergeev"
INDEX 01 00:00:00
FILE "08 - No. 8 in F-Sharp Minor.wav" WAVE
TRACK 08 AUDIO
TITLE "No. 8 in F-Sharp Minor"
PERFORMER "Mikael Ayrapetyan, Vladimir Sergeev"
INDEX 01 00:00:00
FILE "09 - No. 9 in E Major.wav" WAVE
TRACK 09 AUDIO
TITLE "No. 9 in E Major"
PERFORMER "Mikael Ayrapetyan, Vladimir Sergeev"
INDEX 01 00:00:00
FILE "10 - No. 10 in C-Sharp Minor.wav" WAVE
TRACK 10 AUDIO
TITLE "No. 10 in C-Sharp Minor"
PERFORMER "Mikael Ayrapetyan, Vladimir Sergeev"
INDEX 01 00:00:00
FILE "11 - No. 11 in B Major.wav" WAVE
TRACK 11 AUDIO
TITLE "No. 11 in B Major"
PERFORMER "Mikael Ayrapetyan, Vladimir Sergeev"
INDEX 01 00:00:00
FILE "12 - No. 12 in G-Sharp Minor.wav" WAVE
TRACK 12 AUDIO
TITLE "No. 12 in G-Sharp Minor"
PERFORMER "Mikael Ayrapetyan, Vladimir Sergeev"
INDEX 01 00:00:00
FILE "13 - No. 13 in F-Sharp Major.wav" WAVE
TRACK 13 AUDIO
TITLE "No. 13 in F-Sharp Major"
PERFORMER "Mikael Ayrapetyan, Vladimir Sergeev"
INDEX 01 00:00:00
FILE "14 - No. 14 in E-Flat Minor.wav" WAVE
TRACK 14 AUDIO
TITLE "No. 14 in E-Flat Minor"
PERFORMER "Mikael Ayrapetyan, Vladimir Sergeev"
INDEX 01 00:00:00
FILE "15 - No. 15 in D-Flat Major.wav" WAVE
TRACK 15 AUDIO
TITLE "No. 15 in D-Flat Major"
PERFORMER "Mikael Ayrapetyan, Vladimir Sergeev"
INDEX 01 00:00:00
FILE "16 - No. 16 in B-Flat Minor.wav" WAVE
TRACK 16 AUDIO
TITLE "No. 16 in B-Flat Minor"
PERFORMER "Mikael Ayrapetyan, Vladimir Sergeev"
INDEX 01 00:00:00
FILE "17 - No. 17 in A-Flat Major.wav" WAVE
TRACK 17 AUDIO
TITLE "No. 17 in A-Flat Major"
PERFORMER "Mikael Ayrapetyan, Vladimir Sergeev"
INDEX 01 00:00:00
FILE "18 - No. 18 in F Minor.wav" WAVE
TRACK 18 AUDIO
TITLE "No. 18 in F Minor"
PERFORMER "Mikael Ayrapetyan, Vladimir Sergeev"
INDEX 01 00:00:00
FILE "19 - No. 19 in E-Flat Major.wav" WAVE
TRACK 19 AUDIO
TITLE "No. 19 in E-Flat Major"
PERFORMER "Mikael Ayrapetyan, Vladimir Sergeev"
INDEX 01 00:00:00
FILE "20 - No. 20 in C Minor.wav" WAVE
TRACK 20 AUDIO
TITLE "No. 20 in C Minor"
PERFORMER "Mikael Ayrapetyan, Vladimir Sergeev"
INDEX 01 00:00:00
FILE "21 - No. 21 in B-Flat Major.wav" WAVE
TRACK 21 AUDIO
TITLE "No. 21 in B-Flat Major"
PERFORMER "Mikael Ayrapetyan, Vladimir Sergeev"
INDEX 01 00:00:00
FILE "22 - No. 22 in G Minor.wav" WAVE
TRACK 22 AUDIO
TITLE "No. 22 in G Minor"
PERFORMER "Mikael Ayrapetyan, Vladimir Sergeev"
INDEX 01 00:00:00
FILE "23 - No. 23 in F Major.wav" WAVE
TRACK 23 AUDIO
TITLE "No. 23 in F Major"
PERFORMER "Mikael Ayrapetyan, Vladimir Sergeev"
INDEX 01 00:00:00
FILE "24 - No. 24 in D Minor.wav" WAVE
TRACK 24 AUDIO
TITLE "No. 24 in D Minor"
PERFORMER "Mikael Ayrapetyan, Vladimir Sergeev"
INDEX 01 00:00:00
FILE "25 - Rhapsody (version for violin and piano).wav" WAVE
TRACK 25 AUDIO
TITLE "Rhapsody (version for violin and piano)"
PERFORMER "Mikael Ayrapetyan, Vladimir Sergeev"
INDEX 01 00:00:00
FILE "26 - Nocturne in A Major.wav" WAVE
TRACK 26 AUDIO
TITLE "Nocturne in A Major"
PERFORMER "Mikael Ayrapetyan, Vladimir Sergeev"
INDEX 01 00:00:00
Дополнительная информация: Эдуа́рд Оганесович Багдасаря́н (арм. Էդուարդ Բաղդասարյան; 14 ноября 1922, Эривань, Армянская ССР, ЗСФСР — 5 ноября 1987, Ереван, Армянская ССР, СССР) — армянский советский композитор, педагог, заслуженный деятель искусств Армянской ССР (1963)
Среднее образование получил в Тбилиси, окончил в 1940 году. Одновременно учился в десятилетней музыкальной школе. В 1941 году поступил в Тбилисскую государственную консерваторию, а в 1946 году переехал в Ереван, где продолжил учебу в Ереванской государственной консерватории имени Комитаса, которую окончил в 1950 году.
В 1951—1953 гг. учился в Москве, в Доме армянской культуры. По возвращении в Ереван преподавал в консерватории. В Музыкальном училище имени Романоса Меликяна был руководителем класса творчества. Много выступал как виртуозный пианист, исполнитель собственной музыки.
Является автором многочисленных произведений — прелюдии и соната для кларнета и фортепиано, рапсодии для скрипки и оркестра, 24 прелюдии для фортепиано, Танцевальная сюита для двух фортепиано и т. д.
Автор музыки к ряду спектаклей и фильмов: «Тжвжик» (1961), «Треугольник» и др. (wiki)-mp3-Внимание! Торрент-файл перезалит 18.01.2016 в 22:00 по МСК времени, сделан рип с диска.



Показать сообщения:    

Текущее время: 08-Дек 12:56

Часовой пояс: UTC + 3


Вы не можете начинать темы
Вы не можете отвечать на сообщения
Вы не можете редактировать свои сообщения
Вы не можете удалять свои сообщения
Вы не можете голосовать в опросах
Вы не можете прикреплять файлы к сообщениям
Вы не можете скачивать файлы