Больше, чем любовь. Елена Образцова и Альгис Жюрайтис (Юлия Рябкова) [2013, биография, DVB-AVC]


Статистика раздачи [Обновить пиров]
Размер:  773 MB   |    Зарегистрирован:  8 месяцев 15 дней   |    Скачан:  0 раз

Полного источника не было: Никогда

Личеров:  20  [  0 KB/s  ]   Подробная статистика пиров
 
   
 
 
 

[Цитировать]

Больше, чем любовь. Елена Образцова и Альгис Жюрайтис
Дата/Год выпуска: 2013
Страна: Россия
Жанр: биография
Продолжительность: 00:38:44
Перевод: Не требуется
Режиссер: Юлия Рябкова
Телеканал: Культура
Описание: Он стремился к уединению, увлекался философией и йогой. В Большом театре подтрунивали над аскетичным образом жизни дирижера Жюрайтиса. Сам же он глубоко переживал, что не создан для семейного счастья. "Для этого тоже нужен талант, - сказал он однажды дочери. - А я больше талантлив в музыке". Внезапно вспыхнувшая любовь поставила все на свои места. "Нам не нужно было объяснять друг другу ничего, - говорила Елена Образцова. - Мы были, как единое существо. И наша необыкновенная любовь рождала необыкновенную музыку".
Сэмпл: http://sendfile.su/1074154
Качество видео: DVB-AVC (РТРС-1)
Формат/Контейнер: MKV
Видео кодек: H.264
Аудио кодек: MP2
Видео поток: 720x576 (AR 785:576) 50fps ~2500 Kbps.
Аудио поток: 48000Hz 2 ch mono 192 Kbps

MediaInfo

Format                         : Matroska
Format version : Version 4 / Version 2
File size : 773 MiB
Duration : 38mn 44s
Overall bit rate : 2 789 Kbps
Encoded date : UTC 2015-01-16 11:43:45
Writing application : mkvmerge v6.1.0 ('Old Devil') built on Mar 4 2013 09:10:42
Writing library : libebml v1.3.0 + libmatroska v1.4.0
Video
ID : 1
Format : AVC
Format/Info : Advanced Video Codec
Format profile : Main@L3.0
Format settings, CABAC : Yes
Format settings, ReFrames : 3 frames
Codec ID : V_MPEG4/ISO/AVC
Duration : 38mn 44s
Bit rate : 2 541 Kbps
Width : 720 pixels
Height : 576 pixels
Display aspect ratio : 4:3
Original display aspect ratio : 4:3
Frame rate mode : Constant
Frame rate : 25.000 fps
Standard : Component
Color space : YUV
Chroma subsampling : 4:2:0
Bit depth : 8 bits
Scan type : Interlaced
Bits/(Pixel*Frame) : 0.245
Stream size : 704 MiB (91%)
Default : Yes
Forced : No
Color primaries : BT.601 PAL
Transfer characteristics : BT.470 System B, BT.470 System G
Matrix coefficients : BT.601
Audio
ID : 2
Format : MPEG Audio
Format version : Version 1
Format profile : Layer 2
Codec ID : A_MPEG/L2
Codec ID/Hint : MP2
Duration : 38mn 44s
Bit rate mode : Constant
Bit rate : 192 Kbps
Channel(s) : 2 channels
Sampling rate : 48.0 KHz
Compression mode : Lossy
Delay relative to video : 19ms
Stream size : 53.2 MiB (7%)
Default : Yes
Forced : No

Скриншоты

[teatrix.ru].t20121.torrent 
Торрент: Зарегистрирован [ 2016-03-19 00:50 ] · 62DEE2A6DDA07DC805917227B00570F047306CE9

Скачать .torrent

Скачать

16 KB

Статус: проверено
Скачан: 0 раз
Размер: 773 MB
terms.php



Быстрый ответ

Имя:

      
Для отправки сообщений необходимо включить JavaScript
Показать сообщения:    

Текущее время: 03-Дек 03:21

Часовой пояс: UTC + 3


Вы можете начинать темы
Вы можете отвечать на сообщения
Вы не можете редактировать свои сообщения
Вы не можете удалять свои сообщения
Вы не можете голосовать в опросах
Вы не можете прикреплять файлы к сообщениям
Вы можете скачивать файлы