Бульон Культуры: С глазу на глаз с Жаном-Полем Бельмондо / Bouillon de culture: Tete-a-tete avec Jean-Paul Belmondo (Мишель Эрман / Michel Hermant) [18.12.1998, документальный, кинематограф, VHSRip] Original (Fre) + Sub (Rus)


Статистика раздачи [Обновить пиров]
Размер:  211 MB   |    Зарегистрирован:  8 месяцев 21 день   |    Скачан:  0 раз

Полного источника не было: Никогда

Личеров:  3  [  0 KB/s  ]   Подробная статистика пиров
 
   
 
 
 

[Цитировать]

Бульон Культуры: С глазу на глаз с Жаном-Полем Бельмондо
Bouillon de culture: Tête-à-tête avec Jean-Paul Belmondo- Дата/Год выпуска: 18.12.1998
Страна: Франция
Жанр: документальный, кинематограф
Продолжительность: 00:13:57
Перевод: Субтитры
Русские субтитры: естьФормат субтитров: softsub (SRT)
Доп. информация о субтитрах: перевод Алексей Королёв, консультант Alec Storm, инициатор Алексей Проскуряков aka Aleks Punk
Оригинальная аудиодорожка: французский
Режиссер: Мишель Эрман / Michel Hermant
Телеканал: France 2
Описание: В 2001 году с французских экранов исчезло еженедельное литературное шоу "Бульон Культуры". 10 лет варил этот бульон, подбрасывая в издательские котлы коренья самых разных растений, журналист и писатель, страстный любитель диктантов и страж французского языка - Бернар Пиво / Bernard Pivot. На самом деле его "Бульон Культуры" был попыткой вскипятить и сделать съедобной самую популярную в стране телепередачу "Апострофы", которую Пиво вел в течение целых 28 лет... Его "Апострофы" были чем-то вроде национального института, гибридом гигантского книжного магазина, справочного бюро, трибуной критиков и подмостками мировых звезд: от Гарсия Маркеса, Чарльза Буковского до Александра Солженицына и Владимира Набокова. Бернар Пиво / Bernard Pivot, стал первым не писателем избранным в члены Гонкуровской академии (в 2004г.) и с января 2014 года возглавивил Академию.
Жан-Поль Бельмондо рассказывает о своей профессии актера.
Доп. информация: За предоставленный материал благодарность Aleks Punk.

10 вопросов от Бернара Пиво

Бернар Пиво придумал оригинальный опросник с 10 вопросами, на которые каждый гость передачи должен был ответить. Ответы могли быть как серьезными‚ так и не очень. Каждый сам решал как отвечать. Этот опросник также впоследствии использовал Джеймс Липтон, ведущий американской программы В актерской студии / Inside The Actor's Studio.
01. Ваше самое любимое слово?
02. Ваше самое нелюбимое слово?
03. Что Вас "заводит" - творчески, духовно, эмоционально?
04. Что "обламывает"?
05. Ваше излюбленное ругательство?
06. Какие звуки или шумы Вы любите?
07. Какие звуки или шумы Вы ненавидите?
08. В какой профессии, кроме Вашей, хотели бы Вы себя попробовать?
09. Чем бы Вы никогда не хотели заниматься?
10. Если Бог существует, что бы Вам хотелось от него услышать, когда окажетесь там.
качество: VHSRip
формат: MKV
Видео: AVC (H.264), 640x352 (16:9), 25 fps, ~2000 kbps avg, 0.355 bit/pixel
Аудио: AC3, 2 ch, 48 kHz, ~192.00 kbps avg

Пример субтитров

1
00:00:00,000 --> 00:00:02,180
... в передаче Жана Нуара.
2
00:00:02,260 --> 00:00:05,740
Жан Марэ переоделся в Цезаря,
3
00:00:05,980 --> 00:00:08,340
и вся труппа вышла в костюмах.
4
00:00:08,420 --> 00:00:12,300
Он их представляет
одного за другим пока...
5
00:00:12,900 --> 00:00:15,180
- И месье Девильдер
6
00:00:15,540 --> 00:00:17,820
???
7
00:00:19,260 --> 00:00:21,380
Вечный тип ??
8
00:00:21,820 --> 00:00:25,300
И месье Жан-Поль Бельмондо,
9
00:00:25,420 --> 00:00:28,940
римский легионер второго класса.
10
00:00:29,780 --> 00:00:31,980
Он очень талантлив...
11
00:00:32,700 --> 00:00:35,580
- Он сказал, что вы
очень талантливы.
12
00:00:35,700 --> 00:00:41,340
Жан Марэ всегда говорил, что он
предчувствовал ваш большой успех.
13
00:00:41,460 --> 00:00:48,740
- Жан Марэ был потрясающим, потому что
он был крупной звездой, он и сейчас ей
является, а тогда особенно.
14
00:00:48,860 --> 00:00:53,900
Он был очень любезен с нами,
а я играл несчастного часового
15
00:00:54,020 --> 00:00:57,220
Я играю типа,
который спрашивает пароли ...
16
00:00:57,260 --> 00:01:02,260
- То есть уже неподходящая роль?
- Неподходящая, да. И Марэ с Бернаром Ноэлем
смотрели как мы играем.
17
00:01:02,380 --> 00:01:06,140
(неразборчиво)
18
00:01:06,500 --> 00:01:10,340
- В этой же пьесе играл Жак Перрен, ему было
24 года, это был его дебют...
- Да, Жак Перрен, да.
19
00:01:10,620 --> 00:01:16,380
Нет, пардон, это вам было 24 года, а Перрену...
- А Перрену было лет 15.
- Да.
20
00:01:17,820 --> 00:01:23,980
И я заметил, вы много играли охранников,
часовых, солдат второго плана...
- Да, это так.

MediaInfo

Общее
Уникальный идентификатор : 237419089980598676542308228124451374483 (0xB29D40E3D24E02398DF7509155ED8593)
Полное имя : E:\My Torrents 2\[apreder]Bouillon_de_culture_Tete-a-tete_avec_Jean-Paul_Belmondo(18.12.1998)VHSRip.mkv
Формат : Matroska
Версия формата : Version 2
Размер файла : 211 Мбайт
Продолжительность : 13 м.
Общий поток : 2191 Кбит/сек
Дата кодирования : UTC 2015-01-20 13:43:50
Программа кодирования : mkvmerge v7.5.0 ('Glass Culture') 64bit built on Jan 4 2015 16:48:44
Библиотека кодирования : libebml v1.3.1 + libmatroska v1.4.2
Видео
Идентификатор : 1
Формат : AVC
Формат/Информация : Advanced Video Codec
Профиль формата : High@L4.1
Параметр CABAC формата : Да
Параметр ReFrames формата : 16 кадров
Идентификатор кодека : V_MPEG4/ISO/AVC
Продолжительность : 13 м.
Битрейт : 2000 Кбит/сек
Ширина : 640 пикселей
Высота : 352 пикселя
Соотношение сторон : 16:9
Режим частоты кадров : Постоянный
Частота кадров : 25,000 кадров/сек
Цветовое пространство : YUV
Субдискретизация насыщенности : 4:2:0
Битовая глубина : 8 бит
Тип развёртки : Прогрессивная
Бит/(Пиксели*Кадры) : 0.355
Размер потока : 188 Мбайт (89%)
Библиотека кодирования : x264 core 144 r2525 40bb568
Настройки программы : cabac=1 / ref=16 / deblock=1:-1:-1 / analyse=0x3:0x133 / me=umh / subme=10 / psy=1 / psy_rd=1.00:0.15 / mixed_ref=1 / me_range=24 / chroma_me=1 / trellis=2 / 8x8dct=1 / cqm=0 / deadzone=21,11 / fast_pskip=1 / chroma_qp_offset=-3 / threads=6 / lookahead_threads=1 / sliced_threads=0 / nr=0 / decimate=1 / interlaced=0 / bluray_compat=0 / constrained_intra=0 / bframes=8 / b_pyramid=2 / b_adapt=2 / b_bias=0 / direct=3 / weightb=1 / open_gop=0 / weightp=2 / keyint=250 / keyint_min=25 / scenecut=40 / intra_refresh=0 / rc_lookahead=60 / rc=2pass / mbtree=1 / bitrate=2000 / ratetol=1.0 / qcomp=0.60 / qpmin=0 / qpmax=69 / qpstep=4 / cplxblur=20.0 / qblur=0.5 / vbv_maxrate=62500 / vbv_bufsize=78125 / nal_hrd=none / filler=0 / ip_ratio=1.40 / aq=1:1.00
Default : Да
Forced : Нет
Аудио
Идентификатор : 2
Формат : AC-3
Формат/Информация : Audio Coding 3
Расширение режима : CM (complete main)
Параметр Endianness формата : Big
Идентификатор кодека : A_AC3
Продолжительность : 13 м.
Вид битрейта : Постоянный
Битрейт : 192 Кбит/сек
Каналы : 2 канала
Расположение каналов : Front: L R
Частота : 48,0 КГц
Битовая глубина : 16 бит
Метод сжатия : С потерями
Размер потока : 18,5 Мбайт (9%)
Язык : French
Default : Да
Forced : Нет
Текст
Идентификатор : 3
Формат : UTF-8
Идентификатор кодека : S_TEXT/UTF8
Идентификатор кодека/Информация : UTF-8 Plain Text
Язык : Russian
Default : Да
Forced : Нет

Скриншоты

Резервные скриншоты

-[2'056]
[teatrix.ru].t20124.torrent 
Торрент: Зарегистрирован [ 2016-03-19 00:57 ] · 798F016AEEDE4C1BBB24DB758E6AC4A60C86B498

Скачать .torrent

Скачать

17 KB

Статус: проверено
Скачан: 0 раз
Размер: 211 MB
terms.php



Показать сообщения:    

Текущее время: 09-Дек 12:46

Часовой пояс: UTC + 3


Вы не можете начинать темы
Вы не можете отвечать на сообщения
Вы не можете редактировать свои сообщения
Вы не можете удалять свои сообщения
Вы не можете голосовать в опросах
Вы не можете прикреплять файлы к сообщениям
Вы можете скачивать файлы