(Contemporary Classical, 21st Century) Kaija Saariaho - Emilie Suite, Quatre Instants, Terra Memoria (Karen Vourc'h, Orchestre Philharmonique De Strasbourg, Marko Letonja) - 2014, FLAC (tracks+.cue) lossless


 

[Цитировать]

Kaija Saariaho - Emilie Suite, Quatre Instants, Terra Memoria
Жанр: Contemporary Classical, 21st Century
Страна-производитель диска: Finland
Год издания диска: 2014
Издатель (лейбл): Ondine
Номер по каталогу: ODE 1255-2
Аудиокодек: FLAC
Тип рипа: tracks+.cue
Битрейт аудио: lossless
Продолжительность: 71:11
Источник: скачано с
сайт-источник/ник/другое: waffles.fm
Наличие сканов в содержимом раздачи:
Треклист:
Quatre Instants 20:09
1. Attente
2. Douleur
3. Parfum De L'Instant
4. Resonances
5. Terra Memoria (For String Orchestra) 17:47
Emilie Suite 32:46
6. Pressentiments
7. Interlude I
8. Principia
9. Interlude II
10. Contre L'Oubli
Исполнители:
Karen Vourc'h: soprano
Orchestre Philharmonique De Strasbourg / Marko Letonja, conductor

Лог создания рипа

X Lossless Decoder version 20141129 (148.1)
XLD extraction logfile from 2015-01-13 21:11:12 -0500
Karen Vourc'h, soprano; Orch Philharmonique de Strasbourg, Marko Letonja / Г‰milie Suite - Quatre Instants - Terra Memoria
Used drive : HL-DT-ST DVDRW GX40N (revision RQ00)
Media type : Pressed CD
Ripper mode : XLD Secure Ripper
Disable audio cache : OK for the drive with a cache less than 1375KiB
Make use of C2 pointers : NO
Read offset correction : 6
Max retry count : 100
Gap status : Analyzed, Appended (except HTOA)
TOC of the extracted CD
Track | Start | Length | Start sector | End sector
---------------------------------------------------------
1 | 00:00:00 | 05:28:63 | 0 | 24662
2 | 05:28:63 | 05:03:42 | 24663 | 47429
3 | 10:32:30 | 03:40:40 | 47430 | 63969
4 | 14:12:70 | 06:10:26 | 63970 | 91745
5 | 20:23:21 | 17:59:21 | 91746 | 172691
6 | 38:22:42 | 08:13:05 | 172692 | 209671
7 | 46:35:47 | 04:08:36 | 209672 | 228307
8 | 50:44:08 | 07:44:66 | 228308 | 263173
9 | 58:28:74 | 02:59:74 | 263174 | 276672
10 | 61:28:73 | 09:42:02 | 276673 | 320324
AccurateRip Summary
Disc not found in AccurateRip DB.
All Tracks
Album gain : 3.22 dB
Peak : 0.932404
Statistics
Read error : 0
Jitter error (maybe fixed) : 0
Retry sector count : 0
Damaged sector count : 0
Track 01
Filename : /Users/bill/Desktop/01 Saariaho, Kaija (1952 - ) - Quatre Instants (2002)пјљ I. Attente.flac
/Users/bill/Desktop/01 Saariaho, Kaija (1952 - ) - Quatre Instants (2002)пјљ I. Attente(LAME MP3 (VBR-new quality 0.0)).mp3
/Users/bill/Desktop/01 Saariaho, Kaija (1952 - ) - Quatre Instants (2002)пјљ I. Attente(LAME MP3 (CBR 320kbps)).mp3
Pre-gap length : 00:02:00
Track gain : 4.41 dB
Peak : 0.694672
CRC32 hash (test run) : 96E9555C
CRC32 hash : 96E9555C
CRC32 hash (skip zero) : DD6FE24E
AccurateRip v1 signature : 5CE7D070
AccurateRip v2 signature : F8075C4C
->Track not present in AccurateRip database.
Statistics
Read error : 0
Jitter error (maybe fixed) : 0
Retry sector count : 0
Damaged sector count : 0
Track 02
Filename : /Users/bill/Desktop/02 Saariaho, Kaija (1952 - ) - Quatre Instantsпјљ II. Douleur.flac
/Users/bill/Desktop/02 Saariaho, Kaija (1952 - ) - Quatre Instantsпјљ II. Douleur(LAME MP3 (VBR-new quality 0.0)).mp3
/Users/bill/Desktop/02 Saariaho, Kaija (1952 - ) - Quatre Instantsпјљ II. Douleur(LAME MP3 (CBR 320kbps)).mp3
Track gain : -1.93 dB
Peak : 0.932404
CRC32 hash (test run) : 6DE14C50
CRC32 hash : 6DE14C50
CRC32 hash (skip zero) : EAB7FF34
AccurateRip v1 signature : D0A3C04C
AccurateRip v2 signature : 7A523887
->Track not present in AccurateRip database.
Statistics
Read error : 0
Jitter error (maybe fixed) : 0
Retry sector count : 0
Damaged sector count : 0
Track 03
Filename : /Users/bill/Desktop/03 Saariaho, Kaija (1952 - ) - Quatre Instantsпјљ III. Parfum de l'instant.flac
/Users/bill/Desktop/03 Saariaho, Kaija (1952 - ) - Quatre Instantsпјљ III. Parfum de l'instant(LAME MP3 (VBR-new quality 0.0)).mp3
/Users/bill/Desktop/03 Saariaho, Kaija (1952 - ) - Quatre Instantsпјљ III. Parfum de l'instant(LAME MP3 (CBR 320kbps)).mp3
Track gain : 2.85 dB
Peak : 0.404205
CRC32 hash (test run) : 1E08D333
CRC32 hash : 1E08D333
CRC32 hash (skip zero) : BDA91924
AccurateRip v1 signature : 9EC96C35
AccurateRip v2 signature : A7DB46CA
->Track not present in AccurateRip database.
Statistics
Read error : 0
Jitter error (maybe fixed) : 0
Retry sector count : 0
Damaged sector count : 0
Track 04
Filename : /Users/bill/Desktop/04 Saariaho, Kaija (1952 - ) - Quatre Instantsпјљ IV. RГ©sonances.flac
/Users/bill/Desktop/04 Saariaho, Kaija (1952 - ) - Quatre Instantsпјљ IV. RГ©sonances(LAME MP3 (VBR-new quality 0.0)).mp3
/Users/bill/Desktop/04 Saariaho, Kaija (1952 - ) - Quatre Instantsпјљ IV. RГ©sonances(LAME MP3 (CBR 320kbps)).mp3
Track gain : 2.47 dB
Peak : 0.891510
CRC32 hash (test run) : F6564B32
CRC32 hash : F6564B32
CRC32 hash (skip zero) : D90150B3
AccurateRip v1 signature : C1421DFD
AccurateRip v2 signature : B817941C
->Track not present in AccurateRip database.
Statistics
Read error : 0
Jitter error (maybe fixed) : 0
Retry sector count : 0
Damaged sector count : 0
Track 05
Filename : /Users/bill/Desktop/05 Saariaho, Kaija (1952 - ) - Terra memoria (2009).flac
/Users/bill/Desktop/05 Saariaho, Kaija (1952 - ) - Terra memoria (2009)(LAME MP3 (VBR-new quality 0.0)).mp3
/Users/bill/Desktop/05 Saariaho, Kaija (1952 - ) - Terra memoria (2009)(LAME MP3 (CBR 320kbps)).mp3
Pre-gap length : 00:10:00
Track gain : 5.07 dB
Peak : 0.603424
CRC32 hash (test run) : BE0829D5
CRC32 hash : BE0829D5
CRC32 hash (skip zero) : EA208B8A
AccurateRip v1 signature : 682C232C
AccurateRip v2 signature : 95536702
->Track not present in AccurateRip database.
Statistics
Read error : 0
Jitter error (maybe fixed) : 0
Retry sector count : 0
Damaged sector count : 0
Track 06
Filename : /Users/bill/Desktop/06 Saariaho, Kaija (1952 - ) - Г‰milie Suite (2011)пјљ I. Pressentiments.flac
/Users/bill/Desktop/06 Saariaho, Kaija (1952 - ) - Г‰milie Suite (2011)пјљ I. Pressentiments(LAME MP3 (VBR-new quality 0.0)).mp3
/Users/bill/Desktop/06 Saariaho, Kaija (1952 - ) - Г‰milie Suite (2011)пјљ I. Pressentiments(LAME MP3 (CBR 320kbps)).mp3
Pre-gap length : 00:10:00
Track gain : 1.84 dB
Peak : 0.797668
CRC32 hash (test run) : A0CD45FB
CRC32 hash : A0CD45FB
CRC32 hash (skip zero) : 4F8D778A
AccurateRip v1 signature : 136F79BE
AccurateRip v2 signature : E5E0D374
->Track not present in AccurateRip database.
Statistics
Read error : 0
Jitter error (maybe fixed) : 0
Retry sector count : 0
Damaged sector count : 0
Track 07
Filename : /Users/bill/Desktop/07 Saariaho, Kaija (1952 - ) - Г‰milie Suiteпјљ II. Interlude I .flac
/Users/bill/Desktop/07 Saariaho, Kaija (1952 - ) - Г‰milie Suiteпјљ II. Interlude I (LAME MP3 (VBR-new quality 0.0)).mp3
/Users/bill/Desktop/07 Saariaho, Kaija (1952 - ) - Г‰milie Suiteпјљ II. Interlude I (LAME MP3 (CBR 320kbps)).mp3
Track gain : 8.06 dB
Peak : 0.336273
CRC32 hash (test run) : 6E80F7E6
CRC32 hash : 6E80F7E6
CRC32 hash (skip zero) : ABF94AE5
AccurateRip v1 signature : 235095CC
AccurateRip v2 signature : B088427B
->Track not present in AccurateRip database.
Statistics
Read error : 0
Jitter error (maybe fixed) : 0
Retry sector count : 0
Damaged sector count : 0
Track 08
Filename : /Users/bill/Desktop/08 Saariaho, Kaija (1952 - ) - Г‰milie Suiteпјљ III. Principia.flac
/Users/bill/Desktop/08 Saariaho, Kaija (1952 - ) - Г‰milie Suiteпјљ III. Principia(LAME MP3 (VBR-new quality 0.0)).mp3
/Users/bill/Desktop/08 Saariaho, Kaija (1952 - ) - Г‰milie Suiteпјљ III. Principia(LAME MP3 (CBR 320kbps)).mp3
Track gain : -0.50 dB
Peak : 0.798340
CRC32 hash (test run) : 38B47D75
CRC32 hash : 38B47D75
CRC32 hash (skip zero) : 5423682F
AccurateRip v1 signature : 39882CB8
AccurateRip v2 signature : FF66932D
->Track not present in AccurateRip database.
Statistics
Read error : 0
Jitter error (maybe fixed) : 0
Retry sector count : 0
Damaged sector count : 0
Track 09
Filename : /Users/bill/Desktop/09 Saariaho, Kaija (1952 - ) - Г‰milie Suiteпјљ IV. Interlude I.flac
/Users/bill/Desktop/09 Saariaho, Kaija (1952 - ) - Г‰milie Suiteпјљ IV. Interlude I(LAME MP3 (VBR-new quality 0.0)).mp3
/Users/bill/Desktop/09 Saariaho, Kaija (1952 - ) - Г‰milie Suiteпјљ IV. Interlude I(LAME MP3 (CBR 320kbps)).mp3
Track gain : 13.06 dB
Peak : 0.171692
CRC32 hash (test run) : 46AD980B
CRC32 hash : 46AD980B
CRC32 hash (skip zero) : 36152BCB
AccurateRip v1 signature : 69D9C106
AccurateRip v2 signature : 69EA56A0
->Track not present in AccurateRip database.
Statistics
Read error : 0
Jitter error (maybe fixed) : 0
Retry sector count : 0
Damaged sector count : 0
Track 10
Filename : /Users/bill/Desktop/10 Saariaho, Kaija (1952 - ) - Г‰milie Suiteпјљ V. Contre l'oubli.flac
/Users/bill/Desktop/10 Saariaho, Kaija (1952 - ) - Г‰milie Suiteпјљ V. Contre l'oubli(LAME MP3 (VBR-new quality 0.0)).mp3
/Users/bill/Desktop/10 Saariaho, Kaija (1952 - ) - Г‰milie Suiteпјљ V. Contre l'oubli(LAME MP3 (CBR 320kbps)).mp3
Track gain : 4.26 dB
Peak : 0.798004
CRC32 hash (test run) : C7D43949
CRC32 hash : C7D43949
CRC32 hash (skip zero) : B728302B
AccurateRip v1 signature : C8A5307B
AccurateRip v2 signature : 873F8F27
->Track not present in AccurateRip database.
Statistics
Read error : 0
Jitter error (maybe fixed) : 0
Retry sector count : 0
Damaged sector count : 0
No errors occurred
End of status report

Содержание индексной карты (.CUE)

TITLE "Émilie Suite - Quatre Instants - Terra Memoria"
PERFORMER "Karen Vourc'h, soprano; Orch Philharmonique de Strasbourg, Marko Letonja"
CATALOG 0761195125526
REM GENRE "Classical"
REM DATE "2015"
REM DISCID 7A10AF0A
REM REPLAYGAIN_ALBUM_GAIN 3.22 dB
REM REPLAYGAIN_ALBUM_PEAK 0.932404
FILE "01 Saariaho, Kaija (1952 - ) - Quatre Instants (2002) I. Attente.flac" WAVE
TRACK 01 AUDIO
TITLE "Quatre Instants (2002): I. Attente"
PERFORMER "Saariaho, Kaija (1952 - )"
SONGWRITER "Saariaho"
ISRC FINDE1400107
REM REPLAYGAIN_TRACK_GAIN 4.41 dB
REM REPLAYGAIN_TRACK_PEAK 0.694672
INDEX 01 00:00:00
FILE "02 Saariaho, Kaija (1952 - ) - Quatre Instants II. Douleur.flac" WAVE
TRACK 02 AUDIO
TITLE "Quatre Instants: II. Douleur"
PERFORMER "Saariaho, Kaija (1952 - )"
SONGWRITER "Saariaho"
ISRC FINDE1400108
REM REPLAYGAIN_TRACK_GAIN -1.93 dB
REM REPLAYGAIN_TRACK_PEAK 0.932404
INDEX 01 00:00:00
FILE "03 Saariaho, Kaija (1952 - ) - Quatre Instants III. Parfum de l'instant.flac" WAVE
TRACK 03 AUDIO
TITLE "Quatre Instants: III. Parfum de l'instant"
PERFORMER "Saariaho, Kaija (1952 - )"
SONGWRITER "Saariaho"
ISRC FINDE1400109
REM REPLAYGAIN_TRACK_GAIN 2.85 dB
REM REPLAYGAIN_TRACK_PEAK 0.404205
INDEX 01 00:00:00
FILE "04 Saariaho, Kaija (1952 - ) - Quatre Instants IV. Resonances.flac" WAVE
TRACK 04 AUDIO
TITLE "Quatre Instants: IV. Résonances"
PERFORMER "Saariaho, Kaija (1952 - )"
SONGWRITER "Saariaho"
ISRC FINDE1400110
REM REPLAYGAIN_TRACK_GAIN 2.47 dB
REM REPLAYGAIN_TRACK_PEAK 0.891510
INDEX 01 00:00:00
TRACK 05 AUDIO
TITLE "Terra memoria (2009)"
PERFORMER "Saariaho, Kaija (1952 - )"
SONGWRITER "Saariaho"
ISRC FINDE1400111
REM REPLAYGAIN_TRACK_GAIN 5.07 dB
REM REPLAYGAIN_TRACK_PEAK 0.603424
INDEX 00 06:00:26
FILE "05 Saariaho, Kaija (1952 - ) - Terra memoria (2009).flac" WAVE
INDEX 01 00:00:00
TRACK 06 AUDIO
TITLE "Émilie Suite (2011): I. Pressentiments"
PERFORMER "Saariaho, Kaija (1952 - )"
SONGWRITER "Saariaho"
ISRC FINDE1400112
REM REPLAYGAIN_TRACK_GAIN 1.84 dB
REM REPLAYGAIN_TRACK_PEAK 0.797668
INDEX 00 17:49:21
FILE "06 Saariaho, Kaija (1952 - ) - Emilie Suite (2011) I. Pressentiments.flac" WAVE
INDEX 01 00:00:00
FILE "07 Saariaho, Kaija (1952 - ) - Emilie Suite II. Interlude I .flac" WAVE
TRACK 07 AUDIO
TITLE "Émilie Suite: II. Interlude I "
PERFORMER "Saariaho, Kaija (1952 - )"
SONGWRITER "Saariaho"
ISRC FINDE1400113
REM REPLAYGAIN_TRACK_GAIN 8.06 dB
REM REPLAYGAIN_TRACK_PEAK 0.336273
INDEX 01 00:00:00
FILE "08 Saariaho, Kaija (1952 - ) - Emilie Suite III. Principia.flac" WAVE
TRACK 08 AUDIO
TITLE "Émilie Suite: III. Principia"
PERFORMER "Saariaho, Kaija (1952 - )"
SONGWRITER "Saariaho"
ISRC FINDE1400114
REM REPLAYGAIN_TRACK_GAIN -0.50 dB
REM REPLAYGAIN_TRACK_PEAK 0.798340
INDEX 01 00:00:00
FILE "09 Saariaho, Kaija (1952 - ) - Emilie Suite IV. Interlude I.flac" WAVE
TRACK 09 AUDIO
TITLE "Émilie Suite: IV. Interlude I"
PERFORMER "Saariaho, Kaija (1952 - )"
SONGWRITER "Saariaho"
ISRC FINDE1400115
REM REPLAYGAIN_TRACK_GAIN 13.06 dB
REM REPLAYGAIN_TRACK_PEAK 0.171692
INDEX 01 00:00:00
FILE "10 Saariaho, Kaija (1952 - ) - Emilie Suite V. Contre l'oubli.flac" WAVE
TRACK 10 AUDIO
TITLE "Émilie Suite: V. Contre l'oubli"
PERFORMER "Saariaho, Kaija (1952 - )"
SONGWRITER "Saariaho"
ISRC FINDE1400116
REM REPLAYGAIN_TRACK_GAIN 4.26 dB
REM REPLAYGAIN_TRACK_PEAK 0.798004
INDEX 01 00:00:00

Лог проверки качества

d:\>d:\aucdtect -d/-m0 d:\zzz\*.wav
auCDtect: CD records authenticity detector, version 0.8.2
Copyright (c) 2004 Oleg Berngardt. All rights reserved.
Copyright (c) 2004 Alexander Djourik. All rights reserved.
------------------------------------------------------------
Processing file: [01. Quatre Instants (2002)- I. Attente.wav]
------------------------------------------------------------
This track looks like CDDA with probability 100%
------------------------------------------------------------
Processing file: [02. Quatre Instants- II. Douleur.wav]
------------------------------------------------------------
This track looks like MPEG with probability 93%
------------------------------------------------------------
Processing file: [03. Quatre Instants- III. Parfum de l'instant.wav]
------------------------------------------------------------
This track looks like CDDA with probability 94%
------------------------------------------------------------
Processing file: [04. Quatre Instants- IV. Resonances.wav]
------------------------------------------------------------
This track looks like MPEG with probability 93%
------------------------------------------------------------
Processing file: [05. Terra memoria (2009).wav]
------------------------------------------------------------
This track looks like CDDA with probability 100%
------------------------------------------------------------
Processing file: [06. Emilie Suite (2011)- I. Pressentiments.wav]
------------------------------------------------------------
This track looks like CDDA with probability 100%
------------------------------------------------------------
Processing file: [07. Emilie Suite- II. Interlude I .wav]
------------------------------------------------------------
This track looks like CDDA with probability 100%
------------------------------------------------------------
Processing file: [08. Emilie Suite- III. Principia.wav]
------------------------------------------------------------
This track looks like CDDA with probability 94%
------------------------------------------------------------
Processing file: [09. Emilie Suite- IV. Interlude I.wav]
------------------------------------------------------------
This track looks like CDDA with probability 94%
------------------------------------------------------------
Processing file: [10. Emilie Suite- V. Contre l'oubli.wav]
------------------------------------------------------------
This track looks like CDDA with probability 76%
------------------------------------------------------------
Final Conclusion:
------------------------------------------------------------
These tracks looks like CDDA with probability 100%
Доп. информация:

Some Reviews

Ondine's new release includes works written in the last decade by one of the most important Finnish contemporary composers, Kaija Saariaho (b. 1958). - Two of the works, the orchestral version of Quatre instants and Emilie Suite, feature the award-winning soprano Karen Vourc'h. Orchestre Philharmonique de Strasbourg is conducted by the orchestra's new Music Director, Marko Letonja. - Emilie Suite is a 25-minute work based on Saariaho's 80-minute monodrama Opera ?milie including three songs and two orchestral interludes from the Opera. - The Opera tells the dramatic story of a true historical character, Marquise ?milie du Ch?telet (1706-1749), one of the earliest woman scientists, who was also a mathematician and a physician. - Quatre instant is one of Saariaho's vocal masterpieces, a song cycle in four movements. - The songs, which are based on texts written by Amin Maalouf for Kaija Saariaho, reflect various dimensions of love. - Terra Memoria is a work for string orchestra, originally commissioned by the Emerson String Quartet. This meditative work is dedicated "for those departed".
Émilie, Kaija Saariaho’s third opera, is a 70-minute monodrama, to a libretto by Amin Maalouf. It was composed for the soprano Karita Mattila and depicts the events on a single night towards the end of the life of the 18th-century scientist Émilie du Châtelet. The premiere at the Opéra de Lyon in 2010 left a rather bland impression, but the following year Saariaho extracted a suite from her score, omitting the electronic transformations of the original and separating three of the vocal movements with two interludes of orchestral music. The atmosphere and pastel shades of the opera are preserved, but it’s the song cycle on this disc, Quatre Instants, settings from 2002 of four poems by Maalouf, that shows off Saariaho’s vocal writing more convincingly, with the voice of Karen Vourc’h wrapping itself around the tendrils of melody. Between the two comes Terra Memoria, an expansion for string orchestra of what began in 2007 as a string quartet, that exploits every colouristic aspect of contemporary string technique while remaining within relatively safe musical bounds.



Показать сообщения:    

Текущее время: 18-Янв 02:32

Часовой пояс: UTC + 3


Вы не можете начинать темы
Вы не можете отвечать на сообщения
Вы не можете редактировать свои сообщения
Вы не можете удалять свои сообщения
Вы не можете голосовать в опросах
Вы не можете прикреплять файлы к сообщениям
Вы не можете скачивать файлы