(Classical) R. Strauss - Also sprach Zarathustra; Don Juan; Till Eulenspiegels lustige Streiche (G. Dudamel, G. Braunstein, Berliner Philharmoniker) - 2013, FLAC (image+.cue) lossless


 

[Цитировать]

R. Strauss - Also sprach Zarathustra (G. Dudamel)
Жанр: Classical
Страна-производитель диска: Германия
Год издания диска: 2013
Издатель (лейбл): Deutsche Grammophon
Номер по каталогу: 0289 479 1041 1 CD DDD GH
Дата записи: 2013
Аудиокодек: FLAC
Тип рипа: image+.cue
Битрейт аудио: lossless
Продолжительность: 1:09:39
Источник: собственный рип
Наличие сканов в содержимом раздачи: да
Треклист:
Richard Strauss (1864 - 1949)
Also sprach Zarathustra, Op.30
1. Prelude (Sonnenaufgang)
2. Von den Hinterweltlern
3. Von der großen Sehnsucht
4. Von den Freuden und Leidenschaften
5. Das Grablied
6. Von der Wissenschaft 4:29
7. Der Genesende
8. Das Tanzlied
9. Das Nachtwandlerlied
10. Till Eulenspiegel's Merry Pranks (Till Eulenspiegels lustige Streiche), Op. 28
11. Don Juan, Op.20
Исполнители:
Gustavo Dudamel (conductor)
Berliner Philharmoniker
Guy Braunstein (violin solo)

Лог создания рипа

Exact Audio Copy V1.0 beta 3 from 29. August 2011
Отчёт EAC об извлечении, выполненном 13. января 2015, 20:54
Gustavo Dudamel / Richard Strauss: Also Sprach Zarathustra
Дисковод: ASUS DRW-24F1ST a Adapter: 0 ID: 0
Режим чтения : Достоверность
Использование точного потока : Да
Отключение кэша аудио : Да
Использование указателей C2 : Нет
Коррекция смещения при чтении : 6
Способность читать области Lead-in и Lead-out : Нет
Заполнение пропущенных сэмплов тишиной : Да
Удаление блоков с тишиной в начале и конце : Нет
При вычислениях CRC использовались нулевые сэмплы : Да
Интерфейс : Встроенный Win32-интерфейс для Win NT/2000
Выходной формат : Пользовательский кодировщик
Выбранный битрейт : 128 kBit/s
Качество : Высокий
Добавление ID3-тега : Нет
Утилита сжатия : C:\Program Files (x86)\Exact Audio Copy\Flac\flac.exe
Дополнительные параметры : -V -8 %source%
TOC извлечённого CD
Трек | Старт | Длительность | Начальный сектор | Конечный сектор
---------------------------------------------------------------------
1 | 0:00.00 | 1:44.27 | 0 | 7826
2 | 1:44.27 | 4:02.42 | 7827 | 26018
3 | 5:46.69 | 2:02.52 | 26019 | 35220
4 | 7:49.46 | 1:59.64 | 35221 | 44209
5 | 9:49.35 | 2:29.03 | 44210 | 55387
6 | 12:18.38 | 4:29.06 | 55388 | 75568
7 | 16:47.44 | 5:18.57 | 75569 | 99475
8 | 22:06.26 | 8:03.19 | 99476 | 135719
9 | 30:09.45 | 4:55.60 | 135720 | 157904
10 | 35:05.30 | 15:53.69 | 157905 | 229448
11 | 50:59.24 | 18:38.70 | 229449 | 313368
Характеристики диапазона извлечения и сообщения об ошибках
Выбранный диапазон
Имя файла C:\Users\dsch1943\Desktop\Новая папка\Gustavo Dudamel - Richard Strauss- Also Sprach Zarathustra.wav
Пиковый уровень 99.3 %
Скорость извлечения 8.3 X
Качество диапазона 100.0 %
CRC теста 31668F55
CRC копии 31668F55
Копирование... OK
Ошибок не произошло
Конец отчёта
==== Контрольная сумма отчёта 6E8BC7032C8E8E7C7FAC3B5FA133A56C2A9CA50AF02B2C72035D73B01CA7CE4E ====



Показать сообщения:    

Текущее время: 06-Дек 15:06

Часовой пояс: UTC + 3


Вы не можете начинать темы
Вы не можете отвечать на сообщения
Вы не можете редактировать свои сообщения
Вы не можете удалять свои сообщения
Вы не можете голосовать в опросах
Вы не можете прикреплять файлы к сообщениям
Вы не можете скачивать файлы