(Classical) Wolfgang Amadeus Mozart - Arie & Duetti: Die Zauberflote, Don Giovanni, Cosi Fan Tutte, Die Entfuhrung Aus Dem Serail, Le Nozze Di Figaro (Braun, Bayrakdarian, Schade, COC Orchestra, Bradshaw) - 2006, FLAC (tracks+.cue) lossless


 

[Цитировать]

Wolfgang Amadeus Mozart - Arie & Duetti: Die Zauberflote, Don Giovanni, Cosi Fan Tutte, Die Entfuhrung Aus Dem Serail, Le Nozze Di Figaro
Жанр: Classical
Год издания диска: 2006
Издатель (лейбл): CBC
Номер по каталогу:
Аудиокодек: FLAC
Тип рипа: tracks+.cue
Битрейт аудио: lossless
Продолжительность: 01:06:47
Источник: собственный рип
Наличие сканов в содержимом раздачи: да
Исполнители:
Isabel Bayrakdarian
Russell Braun
Michael Schade
COC Orchestra
Richard Bradshaw
Треклист:
Die Zauberflote:
1. Overture
2. Aria: Der Vogelfanger bin ich ja (Braun)
3. Aria: Ein Madchen oder Weibchen (Braun)
4. Aria: Dies Bildnis ist bezaubernd chaun (Schade)
5. Duet: Bei Mannern (Bayrakdarian/Braun)
Don Giovanni:
6. Aria: Il mio tesoro intanto (Schade)
7. Champagne Aria: Finch’han dal vino (Braun)
8. Duet: La ci darem la mano (Bayrakdarian/Braun)
9. Aria: Ah, fuggi il traditor (Bayrakdarian) Cosi Fan Tutte:
Cosi Fan Tutte:
10. Aria: Rivolgete a lui lo sguardo (Braun)
11. Fra gli amplessi (Bayrakdarian/Schade)
12. Aria: Un aura amorosa (Schade)
Die Entfuhrung Aus Dem Serail:
13. Aria: O wie anstlich, O wie feurig (Schade)
Le Nozze Di Figaro:
14. Aria: Vedro mentr-io sospiro (Braun)
15. Arai: Deh vieni non tardar (Bayrakdarian)
16. Aria: non piu andrai (Braun)

LOG EAC CD:

Exact Audio Copy V1.0 beta 3 from 29. August 2011
EAC extraction logfile from 30. October 2014, 23:57
Russell Braun, Isabel Bayrakdarian, Michael Schade, Canadian Opera Company Orchestra, Richard Bradshaw / Mozart: Arie & Duetti
Used drive : hp DVD RW AD-7251H5 Adapter: 0 ID: 2
Read mode : Secure
Utilize accurate stream : Yes
Defeat audio cache : Yes
Make use of C2 pointers : No
Read offset correction : 48
Overread into Lead-In and Lead-Out : No
Fill up missing offset samples with silence : Yes
Delete leading and trailing silent blocks : No
Null samples used in CRC calculations : Yes
Used interface : Native Win32 interface for Win NT & 2000
Gap handling : Appended to previous track
Used output format : User Defined Encoder
Selected bitrate : 128 kBit/s
Quality : High
Add ID3 tag : No
Command line compressor : C:\Program Files (x86)\Exact Audio Copy\Flac\flac.exe
Additional command line options : -8 -V -T "ARTIST=%artist%" -T "TITLE=%title%" -T "ALBUM=%albumtitle%" -T "DATE=%year%" -T "TRACKNUMBER=%tracknr%" -T "GENRE=%genre%" -T "PERFORMER=%albuminterpret%" -T "COMPOSER=%composer%" %haslyrics%--tag-from-file=LYRICS="%lyricsfile%"%haslyrics% -T "ALBUMARTIST=%albumartist%" -T "DISCNUMBER=%cdnumber%" -T "TOTALDISCS=%totalcds%" -T "TOTALTRACKS=%numtracks%" -T "COMMENT=%comment%" %source% -o %dest%
TOC of the extracted CD
Track | Start | Length | Start sector | End sector
---------------------------------------------------------
1 | 0:00.00 | 7:13.16 | 0 | 32490
2 | 7:13.16 | 2:43.64 | 32491 | 44779
3 | 9:57.05 | 4:09.50 | 44780 | 63504
4 | 14:06.55 | 3:59.47 | 63505 | 81476
5 | 18:06.27 | 2:59.24 | 81477 | 94925
6 | 21:05.51 | 4:14.20 | 94926 | 113995
7 | 25:19.71 | 1:27.06 | 113996 | 120526
8 | 26:47.02 | 3:40.01 | 120527 | 137027
9 | 30:27.03 | 1:08.07 | 137028 | 142134
10 | 31:35.10 | 5:31.21 | 142135 | 166980
11 | 37:06.31 | 6:22.73 | 166981 | 195703
12 | 43:29.29 | 5:18.47 | 195704 | 219600
13 | 48:48.01 | 4:56.68 | 219601 | 241868
14 | 53:44.69 | 4:48.60 | 241869 | 263528
15 | 58:33.54 | 4:51.16 | 263529 | 285369
16 | 63:24.70 | 3:54.61 | 285370 | 302980
Track 1
Filename M:\EAC\Russell Braun, Isabel Bayrakdarian, Michael Schade, Canadian Opera Company Orchestra, Richard Bradshaw - 2006 - Mozart- Arie & Duetti\01 - Die Zauberflöte - Overture.wav
Pre-gap length 0:00:02.00
Peak level 76.7 %
Extraction speed 1.8 X
Track quality 99.9 %
Test CRC 281B60DC
Copy CRC 281B60DC
Accurately ripped (confidence 2) [A7D2C78B] (AR v1)
Copy OK
Track 2
Filename M:\EAC\Russell Braun, Isabel Bayrakdarian, Michael Schade, Canadian Opera Company Orchestra, Richard Bradshaw - 2006 - Mozart- Arie & Duetti\02 - Die Zauberflöte - Der Vogelfänger bin ich ja (Braun).wav
Peak level 84.1 %
Extraction speed 2.0 X
Track quality 100.0 %
Test CRC 2DCAE27E
Copy CRC 2DCAE27E
Accurately ripped (confidence 2) [78B2DE5C] (AR v1)
Copy OK
Track 3
Filename M:\EAC\Russell Braun, Isabel Bayrakdarian, Michael Schade, Canadian Opera Company Orchestra, Richard Bradshaw - 2006 - Mozart- Arie & Duetti\03 - Die Zauberflöte - Ein Mädchen oder Weibchen (Braun).wav
Pre-gap length 0:00:02.65
Peak level 90.0 %
Extraction speed 2.0 X
Track quality 99.9 %
Test CRC B73DE881
Copy CRC B73DE881
Accurately ripped (confidence 2) [EC9B54B0] (AR v1)
Copy OK
Track 4
Filename M:\EAC\Russell Braun, Isabel Bayrakdarian, Michael Schade, Canadian Opera Company Orchestra, Richard Bradshaw - 2006 - Mozart- Arie & Duetti\04 - Die Zauberflöte - Dies Bildnis ist bezaubernd schön (Schade).wav
Pre-gap length 0:00:03.92
Peak level 91.9 %
Extraction speed 2.4 X
Track quality 100.0 %
Test CRC A55707B1
Copy CRC A55707B1
Accurately ripped (confidence 2) [1D8F26BF] (AR v1)
Copy OK
Track 5
Filename M:\EAC\Russell Braun, Isabel Bayrakdarian, Michael Schade, Canadian Opera Company Orchestra, Richard Bradshaw - 2006 - Mozart- Arie & Duetti\05 - Die Zauberflöte - Bei Männern (Braun).wav
Pre-gap length 0:00:03.69
Peak level 87.6 %
Extraction speed 2.5 X
Track quality 100.0 %
Test CRC 4F247CFA
Copy CRC 4F247CFA
Accurately ripped (confidence 2) [D9794B7D] (AR v1)
Copy OK
Track 6
Filename M:\EAC\Russell Braun, Isabel Bayrakdarian, Michael Schade, Canadian Opera Company Orchestra, Richard Bradshaw - 2006 - Mozart- Arie & Duetti\06 - Don Giovanni - Il mio tesoro intanto (Schade).wav
Pre-gap length 0:00:04.77
Peak level 73.3 %
Extraction speed 2.3 X
Track quality 99.9 %
Test CRC 20D572E6
Copy CRC 20D572E6
Accurately ripped (confidence 2) [69FADD9E] (AR v1)
Copy OK
Track 7
Filename M:\EAC\Russell Braun, Isabel Bayrakdarian, Michael Schade, Canadian Opera Company Orchestra, Richard Bradshaw - 2006 - Mozart- Arie & Duetti\07 - Don Giovanni - Finch'han dal vino (Braun).wav
Pre-gap length 0:00:02.78
Peak level 86.7 %
Extraction speed 2.2 X
Track quality 100.0 %
Test CRC F00CCE6D
Copy CRC F00CCE6D
Accurately ripped (confidence 2) [A3E82BD9] (AR v1)
Copy OK
Track 8
Filename M:\EAC\Russell Braun, Isabel Bayrakdarian, Michael Schade, Canadian Opera Company Orchestra, Richard Bradshaw - 2006 - Mozart- Arie & Duetti\08 - Don Giovanni - Là ci darem la mano (Bayrakdarian, Braun).wav
Pre-gap length 0:00:02.89
Peak level 100.0 %
Extraction speed 2.8 X
Track quality 100.0 %
Test CRC 6046B355
Copy CRC 6046B355
Accurately ripped (confidence 2) [C2576E9C] (AR v1)
Copy OK
Track 9
Filename M:\EAC\Russell Braun, Isabel Bayrakdarian, Michael Schade, Canadian Opera Company Orchestra, Richard Bradshaw - 2006 - Mozart- Arie & Duetti\09 - Don Giovanni - Ah, fuggi il traditor (Bayrakdarian).wav
Peak level 95.1 %
Extraction speed 2.2 X
Track quality 100.0 %
Test CRC B3C281F4
Copy CRC B3C281F4
Accurately ripped (confidence 2) [D667A241] (AR v1)
Copy OK
Track 10
Filename M:\EAC\Russell Braun, Isabel Bayrakdarian, Michael Schade, Canadian Opera Company Orchestra, Richard Bradshaw - 2006 - Mozart- Arie & Duetti\10 - Così fan tutte - Rivolgete a lui lo sguardo (Braun).wav
Pre-gap length 0:00:03.09
Peak level 99.9 %
Extraction speed 3.2 X
Track quality 100.0 %
Test CRC AF7C516C
Copy CRC AF7C516C
Accurately ripped (confidence 2) [7D234B49] (AR v1)
Copy OK
Track 11
Filename M:\EAC\Russell Braun, Isabel Bayrakdarian, Michael Schade, Canadian Opera Company Orchestra, Richard Bradshaw - 2006 - Mozart- Arie & Duetti\11 - Così fan tutte - Fra gli amplessi (Schade).wav
Pre-gap length 0:00:03.32
Peak level 65.7 %
Extraction speed 3.4 X
Track quality 100.0 %
Test CRC C22D2689
Copy CRC C22D2689
Accurately ripped (confidence 2) [FA74B56C] (AR v1)
Copy OK
Track 12
Filename M:\EAC\Russell Braun, Isabel Bayrakdarian, Michael Schade, Canadian Opera Company Orchestra, Richard Bradshaw - 2006 - Mozart- Arie & Duetti\12 - Così fan tutte - Un'aura amorosa (Schade).wav
Pre-gap length 0:00:03.30
Peak level 78.6 %
Extraction speed 3.5 X
Track quality 100.0 %
Test CRC 787A52F6
Copy CRC 787A52F6
Accurately ripped (confidence 2) [922329C9] (AR v1)
Copy OK
Track 13
Filename M:\EAC\Russell Braun, Isabel Bayrakdarian, Michael Schade, Canadian Opera Company Orchestra, Richard Bradshaw - 2006 - Mozart- Arie & Duetti\13 - Die Entführung aus dem Serail - O wie ängstlich, o wie feurig (Schade).wav
Pre-gap length 0:00:05.22
Peak level 99.2 %
Extraction speed 3.6 X
Track quality 100.0 %
Test CRC 334CBD6E
Copy CRC 334CBD6E
Accurately ripped (confidence 2) [918B8418] (AR v1)
Copy OK
Track 14
Filename M:\EAC\Russell Braun, Isabel Bayrakdarian, Michael Schade, Canadian Opera Company Orchestra, Richard Bradshaw - 2006 - Mozart- Arie & Duetti\14 - Le Nozze di Figaro - Vedrò mentr'io sopiro (Braun).wav
Pre-gap length 0:00:03.18
Peak level 100.0 %
Extraction speed 3.3 X
Track quality 99.9 %
Test CRC 7855B50A
Copy CRC 7855B50A
Accurately ripped (confidence 2) [151153CA] (AR v1)
Copy OK
Track 15
Filename M:\EAC\Russell Braun, Isabel Bayrakdarian, Michael Schade, Canadian Opera Company Orchestra, Richard Bradshaw - 2006 - Mozart- Arie & Duetti\15 - Le Nozze di Figaro - Deh vieni, non tardar (Bayrakdarian).wav
Pre-gap length 0:00:03.66
Peak level 99.2 %
Extraction speed 3.9 X
Track quality 100.0 %
Test CRC D772D78C
Copy CRC D772D78C
Accurately ripped (confidence 2) [E2EA4AA6] (AR v1)
Copy OK
Track 16
Filename M:\EAC\Russell Braun, Isabel Bayrakdarian, Michael Schade, Canadian Opera Company Orchestra, Richard Bradshaw - 2006 - Mozart- Arie & Duetti\16 - Le Nozze di Figaro - Non più andrai (Braun).wav
Pre-gap length 0:00:04.81
Peak level 98.7 %
Extraction speed 3.9 X
Track quality 100.0 %
Test CRC 8F9FDC31
Copy CRC 8F9FDC31
Accurately ripped (confidence 2) [E3481949] (AR v1)
Copy OK
All tracks accurately ripped
No errors occurred
End of status report
---- CUETools DB Plugin V2.1.3
[CTDB TOCID: 0cXOxMFE6ubGi2tBi2jOqrGZm1Y-] found, Submit result: already submitted
[9aa48b03] (4/4) Accurately ripped
==== Log checksum 6FCE590D9A07ECEDBB65CCDFB12BD3E24C549533C57F48EF43F3E4FBB84A4207 ====

LOG (.CUE):

REM GENRE Classical
REM DATE 2006
REM DISCID F20FC710
REM COMMENT "ExactAudioCopy v1.0b3"
CATALOG 0059582523926
PERFORMER "Russell Braun, Isabel Bayrakdarian, Michael Schade, Canadian Opera Company Or..."
TITLE "Mozart: Arie & Duetti"
FILE "Russell Braun, Isabel Bayrakdarian, Michael Schade, Canadian Opera Company Orchestra, Richard Bradshaw - 2006 - Mozart- Arie & Duetti\01 - Die Zauberflцte - Overture.wav" WAVE
TRACK 01 AUDIO
TITLE "Die Zauberflцte - Overture"
PERFORMER "Russell Braun, Isabel Bayrakdarian, Michael Schade, Canadian Opera Company Or..."
ISRC CACA30500194
INDEX 01 00:00:00
FILE "Russell Braun, Isabel Bayrakdarian, Michael Schade, Canadian Opera Company Orchestra, Richard Bradshaw - 2006 - Mozart- Arie & Duetti\02 - Die Zauberflцte - Der Vogelfдnger bin ich ja (Braun).wav" WAVE
TRACK 02 AUDIO
TITLE "Die Zauberflцte - Der Vogelfдnger bin ich ja (Braun)"
PERFORMER "Russell Braun, Isabel Bayrakdarian, Michael Schade, Canadian Opera Company Or..."
ISRC CACA30500195
INDEX 01 00:00:00
TRACK 03 AUDIO
TITLE "Die Zauberflцte - Ein Mдdchen oder Weibchen (Braun)"
PERFORMER "Russell Braun, Isabel Bayrakdarian, Michael Schade, Canadian Opera Company Or..."
ISRC CACA30500196
INDEX 00 02:41:15
FILE "Russell Braun, Isabel Bayrakdarian, Michael Schade, Canadian Opera Company Orchestra, Richard Bradshaw - 2006 - Mozart- Arie & Duetti\03 - Die Zauberflцte - Ein Mдdchen oder Weibchen (Braun).wav" WAVE
INDEX 01 00:00:00
TRACK 04 AUDIO
TITLE "Die Zauberflцte - Dies Bildnis ist bezaubernd schцn (Schade)"
PERFORMER "Russell Braun, Isabel Bayrakdarian, Michael Schade, Canadian Opera Company Or..."
ISRC CACA30500197
INDEX 00 04:05:56
FILE "Russell Braun, Isabel Bayrakdarian, Michael Schade, Canadian Opera Company Orchestra, Richard Bradshaw - 2006 - Mozart- Arie & Duetti\04 - Die Zauberflцte - Dies Bildnis ist bezaubernd schцn (Schade).wav" WAVE
INDEX 01 00:00:00
TRACK 05 AUDIO
TITLE "Die Zauberflцte - Bei Mдnnern (Braun)"
PERFORMER "Russell Braun, Isabel Bayrakdarian, Michael Schade, Canadian Opera Company Or..."
ISRC CACA30500198
INDEX 00 03:55:70
FILE "Russell Braun, Isabel Bayrakdarian, Michael Schade, Canadian Opera Company Orchestra, Richard Bradshaw - 2006 - Mozart- Arie & Duetti\05 - Die Zauberflцte - Bei Mдnnern (Braun).wav" WAVE
INDEX 01 00:00:00
TRACK 06 AUDIO
TITLE "Don Giovanni - Il mio tesoro intanto (Schade)"
PERFORMER "Russell Braun, Isabel Bayrakdarian, Michael Schade, Canadian Opera Company Or..."
ISRC CACA30500199
INDEX 00 02:54:41
FILE "Russell Braun, Isabel Bayrakdarian, Michael Schade, Canadian Opera Company Orchestra, Richard Bradshaw - 2006 - Mozart- Arie & Duetti\06 - Don Giovanni - Il mio tesoro intanto (Schade).wav" WAVE
INDEX 01 00:00:00
TRACK 07 AUDIO
TITLE "Don Giovanni - Finch'han dal vino (Braun)"
PERFORMER "Russell Braun, Isabel Bayrakdarian, Michael Schade, Canadian Opera Company Or..."
ISRC CACA30500200
INDEX 00 04:11:36
FILE "Russell Braun, Isabel Bayrakdarian, Michael Schade, Canadian Opera Company Orchestra, Richard Bradshaw - 2006 - Mozart- Arie & Duetti\07 - Don Giovanni - Finch'han dal vino (Braun).wav" WAVE
INDEX 01 00:00:00
TRACK 08 AUDIO
TITLE "Don Giovanni - Lа ci darem la mano (Bayrakdarian, Braun)"
PERFORMER "Russell Braun, Isabel Bayrakdarian, Michael Schade, Canadian Opera Company Or..."
ISRC CACA30500201
INDEX 00 01:24:14
FILE "Russell Braun, Isabel Bayrakdarian, Michael Schade, Canadian Opera Company Orchestra, Richard Bradshaw - 2006 - Mozart- Arie & Duetti\08 - Don Giovanni - Lа ci darem la mano (Bayrakdarian, Braun).wav" WAVE
INDEX 01 00:00:00
FILE "Russell Braun, Isabel Bayrakdarian, Michael Schade, Canadian Opera Company Orchestra, Richard Bradshaw - 2006 - Mozart- Arie & Duetti\09 - Don Giovanni - Ah, fuggi il traditor (Bayrakdarian).wav" WAVE
TRACK 09 AUDIO
TITLE "Don Giovanni - Ah, fuggi il traditor (Bayrakdarian)"
PERFORMER "Russell Braun, Isabel Bayrakdarian, Michael Schade, Canadian Opera Company Or..."
ISRC CACA30500202
INDEX 01 00:00:00
TRACK 10 AUDIO
TITLE "Cosм fan tutte - Rivolgete a lui lo sguardo (Braun)"
PERFORMER "Russell Braun, Isabel Bayrakdarian, Michael Schade, Canadian Opera Company Or..."
ISRC CACA30500203
INDEX 00 01:05:00
FILE "Russell Braun, Isabel Bayrakdarian, Michael Schade, Canadian Opera Company Orchestra, Richard Bradshaw - 2006 - Mozart- Arie & Duetti\10 - Cosм fan tutte - Rivolgete a lui lo sguardo (Braun).wav" WAVE
INDEX 01 00:00:00
TRACK 11 AUDIO
TITLE "Cosм fan tutte - Fra gli amplessi (Schade)"
PERFORMER "Russell Braun, Isabel Bayrakdarian, Michael Schade, Canadian Opera Company Or..."
ISRC CACA30500204
INDEX 00 05:27:72
FILE "Russell Braun, Isabel Bayrakdarian, Michael Schade, Canadian Opera Company Orchestra, Richard Bradshaw - 2006 - Mozart- Arie & Duetti\11 - Cosм fan tutte - Fra gli amplessi (Schade).wav" WAVE
INDEX 01 00:00:00
TRACK 12 AUDIO
TITLE "Cosм fan tutte - Un'aura amorosa (Schade)"
PERFORMER "Russell Braun, Isabel Bayrakdarian, Michael Schade, Canadian Opera Company Or..."
ISRC CACA30500205
INDEX 00 06:19:50
FILE "Russell Braun, Isabel Bayrakdarian, Michael Schade, Canadian Opera Company Orchestra, Richard Bradshaw - 2006 - Mozart- Arie & Duetti\12 - Cosм fan tutte - Un'aura amorosa (Schade).wav" WAVE
INDEX 01 00:00:00
TRACK 13 AUDIO
TITLE "Die Entfьhrung aus dem Serail - O wie дngstlich, o wie feurig (Schade)"
PERFORMER "Russell Braun, Isabel Bayrakdarian, Michael Schade, Canadian Opera Company Or..."
ISRC CACA30500206
INDEX 00 05:13:30
FILE "Russell Braun, Isabel Bayrakdarian, Michael Schade, Canadian Opera Company Orchestra, Richard Bradshaw - 2006 - Mozart- Arie & Duetti\13 - Die Entfьhrung aus dem Serail - O wie дngstlich, o wie feurig (Schade).wav" WAVE
INDEX 01 00:00:00
TRACK 14 AUDIO
TITLE "Le Nozze di Figaro - Vedrт mentr'io sopiro (Braun)"
PERFORMER "Russell Braun, Isabel Bayrakdarian, Michael Schade, Canadian Opera Company Or..."
ISRC CACA30500207
INDEX 00 04:53:54
FILE "Russell Braun, Isabel Bayrakdarian, Michael Schade, Canadian Opera Company Orchestra, Richard Bradshaw - 2006 - Mozart- Arie & Duetti\14 - Le Nozze di Figaro - Vedrт mentr'io sopiro (Braun).wav" WAVE
INDEX 01 00:00:00
TRACK 15 AUDIO
TITLE "Le Nozze di Figaro - Deh vieni, non tardar (Bayrakdarian)"
PERFORMER "Russell Braun, Isabel Bayrakdarian, Michael Schade, Canadian Opera Company Or..."
ISRC CACA30500208
INDEX 00 04:45:10
FILE "Russell Braun, Isabel Bayrakdarian, Michael Schade, Canadian Opera Company Orchestra, Richard Bradshaw - 2006 - Mozart- Arie & Duetti\15 - Le Nozze di Figaro - Deh vieni, non tardar (Bayrakdarian).wav" WAVE
INDEX 01 00:00:00
TRACK 16 AUDIO
TITLE "Le Nozze di Figaro - Non piщ andrai (Braun)"
PERFORMER "Russell Braun, Isabel Bayrakdarian, Michael Schade, Canadian Opera Company Or..."
ISRC CACA30500209
INDEX 00 04:46:30
FILE "Russell Braun, Isabel Bayrakdarian, Michael Schade, Canadian Opera Company Orchestra, Richard Bradshaw - 2006 - Mozart- Arie & Duetti\16 - Le Nozze di Figaro - Non piщ andrai (Braun).wav" WAVE
INDEX 01 00:00:00



Показать сообщения:    

Текущее время: 08-Дек 19:09

Часовой пояс: UTC + 3


Вы не можете начинать темы
Вы не можете отвечать на сообщения
Вы не можете редактировать свои сообщения
Вы не можете удалять свои сообщения
Вы не можете голосовать в опросах
Вы не можете прикреплять файлы к сообщениям
Вы не можете скачивать файлы