Концерт Елены Образцовой [1987 г., концерт, TVRip]


Статистика раздачи [Обновить пиров]
Размер:  1.09 GB   |    Зарегистрирован:  8 месяцев 16 дней   |    Скачан:  0 раз

Полного источника не было: Никогда

Личеров:  19  [  0 KB/s  ]   Подробная статистика пиров
 
   
 
 
 

[Цитировать]

Концерт Елены Образцовой .
.

Памяти великой певицы - Елены Васильевны Образцовой.
(7 июля 1939, Ленинград - 12 января 2015, Лейпциг)

Колонный зал Дома Союзов.
Год выпуска: 1987.
Жанр: концерт.
Продолжительность: 01:41:39.
Исполнитель: народная артистка СССР
[box]Елена Образцова[/box]
.
Партия фортепиано: Важа Чачава.
Описание:
Концерт народной артистки СССР Елены Образцовой.
В ее исполнении прозвучат произведения Александра Сергеевича Даргомыжского.

В программе

01. Элегия "Я помню глубоко" (слова Дениса Давыдова),
02. "Друг мой прелестный" (слова Виктора Гюго),
03. "Я все еще его люблю" (слова Юлии Жадовской),
04. "Восточный романс" (слова Александра Пушкина),
05. "Лихорадушка" (слова народные),
06. "Несудите, люди добрые" (слова Алексея Тимофеева),
07. "Как мила ее головка" (слова Виталия Туманского),
08. "Я вас любил" (слова Александра Пушкина),
09. "Вертоград" (слова Александра Пушкина),
10. "Баю, баюшки-баю" (слова Марии Даргомыжской),
11. "Шестнадцать лет" (слова Антона Дельвига),
12. "Испанский романс",
13."Я здесь, Инезилья" (слова Александра Пушкина),
14. "Расстались гордо мы" (слова Василия Курочкина),
15. "Ночной зефир струит эфир" (слова Александра Пушкина),
16. "Как у нас на улице" (слова Александра Даргомыжского),
17. "О, милая дева" (слова Адама Мицкевича),
18. "Юноша и дева" (слова Александра Пушкина),
19. "Мне грустно" (слова Михаила Лермонтова),
20. "Моя милая, моя душечка" (слова Дениса Давыдова),
21. "Влюблен я, дева-красота" (слова Николая Языкова),
22. "На раздолье небес" (слова Николая Щербины),
23. "Оделась туманами Сиерра-Невада" (слова В. Широкова),
24. "Не скажу никому" (слова Алексея Кольцова),
25. "На балу" (слова Бирса),
26. "Чаруй меня, чаруй" (слова Юлии Жадовской),
27. "У него ли, русы кудри" (цыганская песня),
28. "Без ума, без разума" (слова Алексея Кольцова),
29. "Ревнуешь ты",
30. "Друг мой, прелестный" (слова Виктора Гюго).
Дополнительная информация:
Страна: СССР .
Релиз
Качество видео:...TVRip
Формат:.................AVI
Видео:..688x528 (1.30:1), 25 fps, XviD MPEG-4 ~1398 kbps avg, 0.15 bit/pixel
Аудио:..44.100 kHz, MPEG Layer 3, 2 ch, ~128.00 kbps avg

Отчет MI

Общее
Полное имя : Obrazcova.Dargomyzhskij.1987.XviD.TVRip.fenixclub.avi
Формат : AVI
Формат/Информация : Audio Video Interleave
Размер файла : 1,09 Гбайт
Продолжительность : 1 ч. 41 м.
Общий поток : 1537 Кбит/сек
Программа кодирования : VirtualDubModRus 1.5.10.2 (build 2542/release)
Библиотека кодирования : VirtualDub build 32842/release
Видео
Идентификатор : 0
Формат : MPEG-4 Visual
Профиль формата : Advanced Simple@L5
Параметр BVOP формата : 2
Параметр QPel формата : Нет
Параметр GMC формата : Без точки перехода
Параметр матрицы формата : Default (H.263)
Режим смешивания : Сжатый битовый поток
Идентификатор кодека : XVID
Идентификатор кодека/Подсказка : XviD
Продолжительность : 1 ч. 41 м.
Битрейт : 1399 Кбит/сек
Ширина : 688 пикселей
Высота : 528 пикселей
Соотношение сторон : 4:3
Частота кадров : 25,000 кадров/сек
Цветовое пространство : YUV
Субдискретизация насыщенности : 4:2:0
Битовая глубина : 8 бит
Тип развёртки : Прогрессивная
Метод сжатия : С потерями
Бит/(Пиксели*Кадры) : 0.154
Размер потока : 1017 Мбайт (91%)
Библиотека кодирования : XviD 1.2.1 (UTC 2008-12-04)
Аудио
Идентификатор : 1
Формат : MPEG Audio
Версия формата : Version 1
Профиль формата : Layer 3
Режим : Joint stereo
Расширение режима : MS Stereo
Идентификатор кодека : 55
Идентификатор кодека/Подсказка : MP3
Продолжительность : 1 ч. 41 м.
Вид битрейта : Постоянный
Битрейт : 128 Кбит/сек
Каналы : 2 канала
Частота : 44,1 КГц
Метод сжатия : С потерями
Размер потока : 93,1 Мбайт (8%)
Выравнивание : Разделение по промежуткам
Продолжительность промежутка : 40 мс. (1,00 видеокадр)
Время предзагрузки промежутка : 500 мс.
Библиотека кодирования : LAME3.98ЄЄЄЄЄЄЄЄЄЄЄЄ

Скриншоты

Альтернативный хост

[teatrix.ru].t20129.torrent 
Торрент: Зарегистрирован [ 2016-03-19 00:49 ] · 7B0A0E0319F167DE7EFD170F54D12C245DA648AB

Скачать .torrent

Скачать

11 KB

Статус: проверено
Скачан: 0 раз
Размер: 1.09 GB
terms.php



Быстрый ответ

Имя:

      
Для отправки сообщений необходимо включить JavaScript
Показать сообщения:    

Текущее время: 04-Дек 13:16

Часовой пояс: UTC + 3


Вы можете начинать темы
Вы можете отвечать на сообщения
Вы не можете редактировать свои сообщения
Вы не можете удалять свои сообщения
Вы не можете голосовать в опросах
Вы не можете прикреплять файлы к сообщениям
Вы можете скачивать файлы