Елена Образцова. Концерт в Большом театре [1978 г., концерт, TVRip] Государственный Академический Большой Театр


 

[Цитировать]

Елена Образцова. Концерт в Большом театре .
.

Памяти великой певицы - Елены Васильевны Образцовой.
(7 июля 1939, Ленинград - 12 января 2015, Лейпциг)

Название театра: Государственный Академический Большой Театр.
Год выпуска: 1978.
Жанр: концерт.
Продолжительность: 01:39:33.
Ведущая: Анна Чехова.
Исполнители: народная артистка СССР
[box]Елена Образцова[/box]
, народный артист Грузинской ССР Зураб Соткилава.
Симфонический оркестр Государственного Академического Большого театра СССР.
Дирижер:
Альгис Жюрайтис.
Описание:
Концерт народной артистки СССР, солистки Большого театра Елены Образцовой.
В исполнении Елены Образцовой звучат арии из опер Моцарта, Чайковского, Верди, Сен-Санса, Массне, Масканьи и Бизе.
Также в исполнении оркестра прозвучат: увертюра к опере "Сорока-воровка" Россини, увертюра к опере "Сицилийская вечерня" Верди и интермеццо из оперы Масканьи "Сельская честь".

Дополнительная информация:
Страна: СССР .
Релиз
Качество видео:...TVRip
Формат:.................AVI
Видео:..688x512 (1.34:1), 25 fps, XviD MPEG-4 ~1429 kbps avg, 0.16 bit/pixel
Аудио:..44.100 kHz, MPEG Layer 3, 2 ch, ~128.00 kbps avg

Отчет MI

Общее
Полное имя : Elena.Obrazcova.Koncert.v.Bol'shom.teatre.1978.XviD.TVRip.fenixclub.avi
Формат : AVI
Формат/Информация : Audio Video Interleave
Размер файла : 1,09 Гбайт
Продолжительность : 1 ч. 39 м.
Общий поток : 1568 Кбит/сек
Программа кодирования : VirtualDubModRus 1.5.10.2 (build 2542/release)
Библиотека кодирования : VirtualDub build 32842/release
Видео
Идентификатор : 0
Формат : MPEG-4 Visual
Профиль формата : Advanced Simple@L5
Параметр BVOP формата : 2
Параметр QPel формата : Нет
Параметр GMC формата : Без точки перехода
Параметр матрицы формата : Default (H.263)
Режим смешивания : Сжатый битовый поток
Идентификатор кодека : XVID
Идентификатор кодека/Подсказка : XviD
Продолжительность : 1 ч. 39 м.
Битрейт : 1430 Кбит/сек
Ширина : 688 пикселей
Высота : 512 пикселей
Соотношение сторон : 4:3
Частота кадров : 25,000 кадров/сек
Цветовое пространство : YUV
Субдискретизация насыщенности : 4:2:0
Битовая глубина : 8 бит
Тип развёртки : Прогрессивная
Метод сжатия : С потерями
Бит/(Пиксели*Кадры) : 0.162
Размер потока : 1018 Мбайт (91%)
Библиотека кодирования : XviD 1.2.1 (UTC 2008-12-04)
Аудио
Идентификатор : 1
Формат : MPEG Audio
Версия формата : Version 1
Профиль формата : Layer 3
Режим : Joint stereo
Расширение режима : MS Stereo
Идентификатор кодека : 55
Идентификатор кодека/Подсказка : MP3
Продолжительность : 1 ч. 39 м.
Вид битрейта : Постоянный
Битрейт : 128 Кбит/сек
Каналы : 2 канала
Частота : 44,1 КГц
Метод сжатия : С потерями
Размер потока : 91,2 Мбайт (8%)
Выравнивание : Разделение по промежуткам
Продолжительность промежутка : 40 мс. (1,00 видеокадр)
Время предзагрузки промежутка : 500 мс.
Библиотека кодирования : LAME3.98ЄЄЄЄЄЄЄЄ

Скриншоты

Альтернативный хост

[teatrix.ru].t20131.torrent
Торрент: Не зарегистрирован

Скачать .torrent

Скачать

11 KB

Добавлен: 2016-03-19 00:51
Скачано: 0 раз  [ Список скачавших ]
   



Быстрый ответ

Имя:

      
Для отправки сообщений необходимо включить JavaScript
Показать сообщения:    

Текущее время: 09-Дек 01:03

Часовой пояс: UTC + 3


Вы можете начинать темы
Вы можете отвечать на сообщения
Вы не можете редактировать свои сообщения
Вы не можете удалять свои сообщения
Вы не можете голосовать в опросах
Вы не можете прикреплять файлы к сообщениям
Вы можете скачивать файлы