Василий Лановой. Чувство цели (Валентина Куликова-Толчан) [2002, биография, IPTVRip]


Статистика раздачи [Обновить пиров]
Размер:  545 MB   |    Зарегистрирован:  8 месяцев 21 день   |    Скачан:  0 раз

Полного источника не было: Никогда

Личеров:  35  [  0 KB/s  ]   Подробная статистика пиров
 
   
 
 
 

[Цитировать]

Василий Лановой. Чувство цели
Дата/Год выпуска: 2002
Страна: Россия
Жанр: биография
Продолжительность: 00:43:53
Перевод: Не требуется
Русские субтитры: нет
Оригинальная аудиодорожка: русский
Режиссер: Валентина Куликова-Толчан
Телеканал: ДовериеОписание: Впервые зритель увидел Василия Ланового, когда ему было неполных восемнадцать лет, в фильме "Аттестат зрелости" (1954 г.) - его Листовский сразу привлек внимание, а следующая работа в кино - Павка Корчагин ("Как закалялась сталь", 1957 г.) - закрепила за ним амплуа актера героико-романтического плана. Василий Лановой - артист разноплановый, и, несмотря на тягу к романтическому, любит играть характерные роли. Ему свойственен такой сценический ход, при котором он, как бы видя персонаж со стороны, подсмеивается над ним. Его Калаф, хоть и прекрасный герой, готовый идти на смерть ради обладания Турандот, окрашен мягким юмором, отчего делается обаятельнее, ближе.Сэмпл: https://www.sendspace.com/file/caujev
качество: IPTVRip (исходник в формате MPEG-2)
формат: AVI
Видео: Xvid 720x400 (16:9) 25fps ~1536kbps
Аудио: MP3 48000Hz stereo (2ch) 192kbps

MediaInfo

General
Complete name : I:\Мои раздачи\Василий Лановой. Чувство цели.avi
Format : AVI
Format/Info : Audio Video Interleave
File size : 545 MiB
Duration : 43mn 52s
Overall bit rate : 1 736 Kbps
Video
ID : 0
Format : MPEG-4 Visual
Format profile : Advanced Simple@L5
Format settings, BVOP : Yes
Format settings, QPel : No
Format settings, GMC : No warppoints
Format settings, Matrix : Default (H.263)
Codec ID : XVID
Codec ID/Hint : XviD
Duration : 43mn 52s
Bit rate : 1 534 Kbps
Width : 720 pixels
Height : 400 pixels
Display aspect ratio : 16:9
Frame rate : 25.000 fps
Color space : YUV
Chroma subsampling : 4:2:0
Bit depth : 8 bits
Scan type : Progressive
Compression mode : Lossy
Bits/(Pixel*Frame) : 0.213
Stream size : 481 MiB (88%)
Writing library : XviD 64
Audio
ID : 1
Format : MPEG Audio
Format version : Version 1
Format profile : Layer 3
Mode : Joint stereo
Mode extension : MS Stereo
Codec ID : 55
Codec ID/Hint : MP3
Duration : 43mn 52s
Bit rate mode : Constant
Bit rate : 192 Kbps
Channel(s) : 2 channels
Sampling rate : 48.0 KHz
Compression mode : Lossy
Stream size : 60.3 MiB (11%)
Alignment : Split accross interleaves
Interleave, duration : 40 ms (1.00 video frame)
Interleave, preload duration : 500 ms

Скриншоты

[teatrix.ru].t20132.torrent 
Торрент: Зарегистрирован [ 2016-03-19 00:54 ] · 7266AA520CED8AE73AA4B8038157C10EA31B0008

Скачать .torrent

Скачать

11 KB

Статус: проверено
Скачан: 0 раз
Размер: 545 MB
terms.php



Быстрый ответ

Имя:

      
Для отправки сообщений необходимо включить JavaScript
Показать сообщения:    

Текущее время: 09-Дек 16:30

Часовой пояс: UTC + 3


Вы можете начинать темы
Вы можете отвечать на сообщения
Вы не можете редактировать свои сообщения
Вы не можете удалять свои сообщения
Вы не можете голосовать в опросах
Вы не можете прикреплять файлы к сообщениям
Вы можете скачивать файлы