Ludwig van Beethoven - La Neuvieme / Симфония № 9 / Девятая симфония (Maurice Bejart, Mari Inamasu, Gil Roman, Bejart Ballet Lausanne, The Tokyo Ballet) [2014, Ballet, HDTVRip-AVC]


 

[Цитировать]

Симфония № 9
La Neuvième de Maurice Béjart- Год выпуска: 2014
Лейбл: WDR, EuroArts, NHK
Страна-производитель: Япония, Германия
Жанр: Ballet
Продолжительность: 01:28:13Режиссер телеверсии: Мари Инамасу / Mari Inamasu
Хореограф: Морис Бежар / Maurice Bejart
Постановщик: Жиль Роман / Gil Roman
Исполнители: Бежар Балет Лозанны / Bejart Ballet Lausanne, Токио балет / The Tokyo Ballet
Израильский симфонический оркестр / Israel Philharmonic Orchestra
Хор Ритсуюкай / Ritsuyukai Choir, солисты: Kristin Lewis, Mihoko Fujimura, Kei Fukui, Alexander Vinogradov
Дирижер: Зубин Мета / Zubin Mehta
Треклист:
01. Prolog (отрывки из произведений Фридриха Ницше: Ecce Homo, "Весёлая наука", "Так говорил Заратустра" исп. Жиль Роман)
02. Allegro ma non troppo (Un poco maestoso)
03. Molto vivace (Presto)
04. Adagio molto e cantabile (Andante moderato)
05. Ode an die Freude / Ода "К радости" (сл. Фридриха Шиллера)Описание: Балет Симфония № 9 (IX Symphonie) на музыку Бетховена и слова Фридриха Ницше и Шиллера, поставленный Морисом Бежаром в 1964 году, стал одним из величайших шедевров в наследии мастера: настоящий гимн человеческой близости, воспевающий неразрывную связь между танцем и музыкой.
Спустя 50 лет после премьерного показа, на суд зрителя, на сцене Зала NHK в Токио представлена возобновленная постановка балета "Девятой симфонии". Для исполнения балета задействовано более 200 человек - танцоров Балета Токио и Балета Бежара Лозанна, исполнителей вокальных партий и Израильского симфонического оркестра.
Доп. информация: Arte HD
Качество видео: HDTVRip-AVC
Формат/Контейнер: MKV
Видео кодек: H.264
Аудио кодек: AC3
Видео поток: AVC (H.264), 1152x640 (16:9), 25 fps, ~2173 kbps avg, 0.118 bit/pixel
Аудио поток: AC3, 2 ch, 48 kHz, ~192.00 kbps avg

MediaInfo

Общее
Уникальный идентификатор : 219300686667508467023896614731631848989 (0xA4FBC6A333B13E3CAEC3E6CDAF286E1D)
Полное имя : E:\My Torrents 2\[apreder]La_Neuvieme_de_Maurice_Bejart(2014)HDTVRip.mkv
Формат : Matroska
Версия формата : Version 2
Размер файла : 1,46 Гбайт
Продолжительность : 1 ч. 28 м.
Общий поток : 2367 Кбит/сек
Дата кодирования : UTC 2015-01-17 12:02:41
Программа кодирования : mkvmerge v7.5.0 ('Glass Culture') 64bit built on Jan 4 2015 16:48:44
Библиотека кодирования : libebml v1.3.1 + libmatroska v1.4.2
Видео
Идентификатор : 1
Формат : AVC
Формат/Информация : Advanced Video Codec
Профиль формата : High@L4.1
Параметр CABAC формата : Да
Параметр ReFrames формата : 11 кадров
Идентификатор кодека : V_MPEG4/ISO/AVC
Продолжительность : 1 ч. 28 м.
Битрейт : 2173 Кбит/сек
Ширина : 1152 пикселя
Высота : 640 пикселей
Соотношение сторон : 16:9
Режим частоты кадров : Постоянный
Частота кадров : 25,000 кадров/сек
Цветовое пространство : YUV
Субдискретизация насыщенности : 4:2:0
Битовая глубина : 8 бит
Тип развёртки : Прогрессивная
Бит/(Пиксели*Кадры) : 0.118
Размер потока : 1,31 Гбайт (90%)
Библиотека кодирования : x264 core 144 r2525 40bb568
Настройки программы : cabac=1 / ref=11 / deblock=1:-1:-1 / analyse=0x3:0x133 / me=umh / subme=10 / psy=1 / psy_rd=1.00:0.15 / mixed_ref=1 / me_range=24 / chroma_me=1 / trellis=2 / 8x8dct=1 / cqm=0 / deadzone=21,11 / fast_pskip=1 / chroma_qp_offset=-3 / threads=6 / lookahead_threads=1 / sliced_threads=0 / nr=0 / decimate=1 / interlaced=0 / bluray_compat=0 / constrained_intra=0 / bframes=8 / b_pyramid=2 / b_adapt=2 / b_bias=0 / direct=3 / weightb=1 / open_gop=0 / weightp=2 / keyint=250 / keyint_min=25 / scenecut=40 / intra_refresh=0 / rc_lookahead=60 / rc=2pass / mbtree=1 / bitrate=2173 / ratetol=1.0 / qcomp=0.60 / qpmin=0 / qpmax=69 / qpstep=4 / cplxblur=20.0 / qblur=0.5 / vbv_maxrate=62500 / vbv_bufsize=78125 / nal_hrd=none / filler=0 / ip_ratio=1.40 / aq=1:1.00
Default : Да
Forced : Нет
Аудио
Идентификатор : 2
Формат : AC-3
Формат/Информация : Audio Coding 3
Расширение режима : CM (complete main)
Параметр Endianness формата : Big
Идентификатор кодека : A_AC3
Продолжительность : 1 ч. 28 м.
Вид битрейта : Постоянный
Битрейт : 192 Кбит/сек
Каналы : 2 канала
Расположение каналов : Front: L R
Частота : 48,0 КГц
Битовая глубина : 16 бит
Метод сжатия : С потерями
Размер потока : 121 Мбайт (8%)
Default : Да
Forced : Нет

Скриншоты

Резервные скриншоты

-[2'057]



Показать сообщения:    

Текущее время: 03-Дек 22:44

Часовой пояс: UTC + 3


Вы не можете начинать темы
Вы не можете отвечать на сообщения
Вы не можете редактировать свои сообщения
Вы не можете удалять свои сообщения
Вы не можете голосовать в опросах
Вы не можете прикреплять файлы к сообщениям
Вы не можете скачивать файлы