Джеки: Власть над стилем / Жаклин Кеннеди. Королева стиля / Jackie: Power and Style (Кристофер Роули / Christopher Rowley) [1999, документальный, биографический, DVB] DVO (Первый канал)


Статистика раздачи [Обновить пиров]
Размер:  1.31 GB   |    Зарегистрирован:  8 месяцев 22 дня   |    Скачан:  0 раз

Полного источника не было: Никогда

Личеров:  39  [  0 KB/s  ]   Подробная статистика пиров
 
   
 
 
 

[Цитировать]

Джеки: Власть над стилем
Jackie: Power and Style- Дата/Год выпуска: 1999
Страна: Канада
Жанр: документальный, биографический
Продолжительность: 00:51:54
Перевод: Профессиональный (двухголосый закадровый)
Доп. инфо о переводе: по заказу ЗАО "Первый канал. Всемирная сеть"
Русские субтитры: нет
Режиссер: Кристофер Роули / Christopher Rowley
Телеканал: Время: далекое и близкоеОписание: Время не властно над тайной Джеки. Подробности ее жизни до сих пор завораживают миллионы людей. Джеки Кеннеди-Онассис – американская икона, человек сильный духом, женщина, чья жизнь стала примером вкуса и диктовала моду.
Жаклин Ли "Джеки" Бувье Кеннеди Онассис, урождённая Жаклин Бувье, по первому браку Кеннеди, по второму Онассис. Широко известная как Джеки — первая леди США с 1961 по 1963 год. Одна из самых популярных женщин своего времени, законодательница моды, красоты и изящества в Америке и Европе, героиня светской хроники. Её помнят за вклад в искусство и сохранение исторической архитектуры. Работала редактором в нескольких издательствах. Её известный розовый костюм от Шанель стал символом убийства её мужа и одним из длительных образов 1960-х. (анонс канала "Время")
Доп. информация: DVB-S. В отличие от имеющегося на трекере SATRip с MVO, в данном релизе другой перевод DVO (Первый канал)

качество: DVB
формат: MKV
Видео: MPEG Video 2, 720x576@768x576 (4:3), 25 fps, ~3347 kbps avg, 0.323 bit/pixel
Аудио: MPEG Audio 2, 2 ch, 48 kHz, ~192.00 kbps avg

MediaInfo

Общее
Уникальный идентификатор : 176582849757872472777679728809575499755 (0x84D89EAB4DD434E895A264FA73DCC7EB)
Полное имя : E:\My Torrents 2\[apreder]Jackie_Power_and_Style(1999)DVB.mkv
Формат : Matroska
Версия формата : Version 2
Размер файла : 1,31 Гбайт
Продолжительность : 51 м.
Режим общего битрейта : Переменный
Общий поток : 3611 Кбит/сек
Дата кодирования : UTC 2015-01-17 16:28:48
Программа кодирования : mkvmerge v7.5.0 ('Glass Culture') 64bit built on Jan 4 2015 16:48:44
Библиотека кодирования : libebml v1.3.1 + libmatroska v1.4.2
Видео
Идентификатор : 1
Формат : MPEG Video
Версия формата : Version 2
Профиль формата : Main@Main
Параметр BVOP формата : Да
Параметр матрицы формата : Выборочная
Параметр GOP формата : M=3, N=12
Format_Settings_PictureStructure : Frame
Идентификатор кодека : V_MPEG2
Идентификатор кодека/Информация : MPEG 1 or 2 Video
Продолжительность : 51 м.
Вид битрейта : Переменный
Битрейт : 3347 Кбит/сек
Ширина : 720 пикселей
Высота : 576 пикселей
Соотношение сторон : 4:3
Режим частоты кадров : Постоянный
Частота кадров : 25,000 кадров/сек
Стандарт вещания : PAL
Цветовое пространство : YUV
Субдискретизация насыщенности : 4:2:0
Битовая глубина : 8 бит
Тип развёртки : Чересстрочная
Порядок развёртки : Верхнее поле первое
Метод сжатия : С потерями
Бит/(Пиксели*Кадры) : 0.323
Временной код первого кадра : 00:00:00:00
Оригинал временного кода : Group of pictures header
Размер потока : 1,21 Гбайт (93%)
Default : Да
Forced : Нет
Gop_OpenClosed_FirstFrame : Closed
Аудио
Идентификатор : 2
Формат : MPEG Audio
Версия формата : Version 1
Профиль формата : Layer 2
Идентификатор кодека : A_MPEG/L2
Идентификатор кодека/Подсказка : MP2
Продолжительность : 51 м.
Вид битрейта : Постоянный
Битрейт : 192 Кбит/сек
Каналы : 2 канала
Частота : 48,0 КГц
Метод сжатия : С потерями
Размер потока : 71,3 Мбайт (5%)
Язык : Russian
Default : Да
Forced : Нет

Скриншоты

Резервные скриншоты

-[2'059]
[teatrix.ru].t20136.torrent 
Торрент: Зарегистрирован [ 2016-03-19 00:54 ] · 9A6B808189787BB182E8D0A23ED12CC4C8DF64FA

Скачать .torrent

Скачать

14 KB

Статус: проверено
Скачан: 0 раз
Размер: 1.31 GB
terms.php



Быстрый ответ

Имя:

      
Для отправки сообщений необходимо включить JavaScript
Показать сообщения:    

Текущее время: 10-Дек 11:49

Часовой пояс: UTC + 3


Вы можете начинать темы
Вы можете отвечать на сообщения
Вы не можете редактировать свои сообщения
Вы не можете удалять свои сообщения
Вы не можете голосовать в опросах
Вы не можете прикреплять файлы к сообщениям
Вы можете скачивать файлы