Верх любопытства: Жан-Поль Бельмондо о фильме Одиночка / Haute curiosite: Jean-Paul Belmondo - Le solitaire (Натали Реймс / Nathalie Rheims) [13.03.1987, документальный, кинематограф, IPTVRip-AVC] Original (Fre) + Sub (Rus)


Статистика раздачи [Обновить пиров]
Размер:  32 MB   |    Зарегистрирован:  8 месяцев 14 дней   |    Скачан:  0 раз

Полного источника не было: Никогда

Личеров:  42  [  0 KB/s  ]   Подробная статистика пиров
 
   
 
 
 

[Цитировать]

Верх любопытства: Жан-Поль Бельмондо о фильме "Одиночка"
Haute curiosité: Jean-Paul Belmondo - Le solitaire- Дата/Год выпуска: 13.03.1987
Страна: Франция
Жанр: документальный, кинематограф
Продолжительность: 00:02:01
Перевод: Субтитры
Русские субтитры: естьФормат субтитров: softsub (SRT)
Доп. информация о субтитрах: перевод Алексей Королёв, консультант Alec Storm, инициатор Алексей Проскуряков aka Aleks Punk
Оригинальная аудиодорожка: французский
Режиссер: Натали Реймс / Nathalie Rheims
Телеканал: ina
Описание: Из архивов Национального института аудиовизуальных материалов Франции (Institut national de l'audiovisuel) отрывок из передачи "Верх любопытства / Haute curiosité" на канале Antenne 2, посвященной искусству. Короткое интервью в гримёрке парижского театра Мариньи (Théâtre Marigny à Paris) перед премьерой спектакля "Кин". Разговор идет о скором выходе на экраны фильма "Одиночка / Le solitaire" (1987) реж. Жака Дере.
Берут интервью журналисты Жорж Бегу / Georges Bégou и Клод Серийон / Claude Sérillon.
Доп. информация: За предоставленный материал благодарность Aleks Punk.

качество: IPTVRip-AVC
формат: MKV
Видео: AVC (H.264), 640x480 (4:3), 25 fps, ~2000 kbps avg, 0.260 bit/pixel
Аудио: AC3, 2 ch, 48 kHz, ~192.00 kbps avg

Пример субтитров

1
00:00:01,040 --> 00:00:03,520
- Жан-Поль Бельмондо, здравствуйте!
- Здравствуйте.
2
00:00:03,640 --> 00:00:07,120
Мы видим вас в этом фильме таким, каким
мы уже привыкли вас видеть...
3
00:00:07,200 --> 00:00:11,480
Вам это не надоело? Ведь вы сейчас,
если так можно сказать, человек театра.
4
00:00:11,600 --> 00:00:15,920
- Нет-нет, мне очень нравится сниматься
в этом фильме - "Одиночка".
5
00:00:16,000 --> 00:00:21,760
Он включает в себя элементы, которые
мне нравятся: тут и действие и юмор
6
00:00:22,200 --> 00:00:27,600
и игра... Люди часто думают, что вот,
раз посыпались тумаки, то я больше не играю.
7
00:00:27,720 --> 00:00:31,440
Но драки ведь не весь фильм,
приходится и играть.
8
00:00:31,600 --> 00:00:37,440
- Надо сказать, что в основе фильма
самая древняя пружина в мире - месть.
9
00:00:37,560 --> 00:00:43,720
Вы полицейский, у вас убили друга, вы
берете себе его ребенка и защищаете его,
и вы жаждете мести.
10
00:00:43,840 --> 00:00:46,920
- Да, это мог бы быть
такой "Граф Монте-Кристо".
11
00:00:47,000 --> 00:00:53,640
Да, я думаю, есть в кино такие темы,
которые будут существовать всегда, которые
люди всегда любят, и я тоже люблю...
12
00:00:53,760 --> 00:00:57,440
Месть - очень хорошая тема, которую
можно рассматривать с разных сторон.
13
00:00:57,560 --> 00:01:03,200
- Скажите, между театром, где вы сейчас работаете,
и кино,- сейчас это фильм "Одиночка",-
14
00:01:03,320 --> 00:01:05,480
вам придется сделать выбор?
15
00:01:05,600 --> 00:01:09,720
- Нет, вы знаете, я бы, наверно,
пожалел потом.
16
00:01:09,800 --> 00:01:15,520
Я долго не знал этой радости, которую дает
театр, я получаю там огромное удовольствие.
17
00:01:15,600 --> 00:01:19,960
Я довольно долго ждал. Теперь я уже не могу
ждать 27 лет, это уже довольно рискованно.
18
00:01:20,040 --> 00:01:25,560
Поэтому я буду играть в театре. В идеале хорошо бы
это совмещать с кино, что я и пытаюсь делать.
19
00:01:25,680 --> 00:01:28,080
- Каждый вечер 4 часа - вы не устали?
20
00:01:28,200 --> 00:01:33,960
- Нет. Вы знаете, тут надо жить в ритме спортсмена,
как-будто каждый вечер чемпионат.

MediaInfo

Общее
Уникальный идентификатор : 242564611029530862757722253662472868158 (0xB67C3EAA19F63B628DE8E77F10DF913E)
Полное имя : E:\My Torrents 2\[apreder]Haute_curiosite_Jean-Paul_Belmondo_Le_solitaire(13.03.1987)IPTVRip.mkv
Формат : Matroska
Версия формата : Version 2
Размер файла : 31,6 Мбайт
Продолжительность : 2 м. 1 с.
Общий поток : 2190 Кбит/сек
Дата кодирования : UTC 2015-01-18 07:21:50
Программа кодирования : mkvmerge v7.5.0 ('Glass Culture') 64bit built on Jan 4 2015 16:48:44
Библиотека кодирования : libebml v1.3.1 + libmatroska v1.4.2
Видео
Идентификатор : 1
Формат : AVC
Формат/Информация : Advanced Video Codec
Профиль формата : High@L4.1
Параметр CABAC формата : Да
Параметр ReFrames формата : 16 кадров
Идентификатор кодека : V_MPEG4/ISO/AVC
Продолжительность : 2 м. 1 с.
Битрейт : 2000 Кбит/сек
Ширина : 640 пикселей
Высота : 480 пикселей
Соотношение сторон : 4:3
Режим частоты кадров : Постоянный
Частота кадров : 25,000 кадров/сек
Цветовое пространство : YUV
Субдискретизация насыщенности : 4:2:0
Битовая глубина : 8 бит
Тип развёртки : Прогрессивная
Бит/(Пиксели*Кадры) : 0.260
Размер потока : 28,2 Мбайт (89%)
Библиотека кодирования : x264 core 144 r2525 40bb568
Настройки программы : cabac=1 / ref=16 / deblock=1:-1:-1 / analyse=0x3:0x133 / me=umh / subme=10 / psy=1 / psy_rd=1.00:0.15 / mixed_ref=1 / me_range=24 / chroma_me=1 / trellis=2 / 8x8dct=1 / cqm=0 / deadzone=21,11 / fast_pskip=1 / chroma_qp_offset=-3 / threads=6 / lookahead_threads=1 / sliced_threads=0 / nr=0 / decimate=1 / interlaced=0 / bluray_compat=0 / constrained_intra=0 / bframes=8 / b_pyramid=2 / b_adapt=2 / b_bias=0 / direct=3 / weightb=1 / open_gop=0 / weightp=2 / keyint=250 / keyint_min=25 / scenecut=40 / intra_refresh=0 / rc_lookahead=60 / rc=2pass / mbtree=1 / bitrate=2000 / ratetol=1.0 / qcomp=0.60 / qpmin=0 / qpmax=69 / qpstep=4 / cplxblur=20.0 / qblur=0.5 / vbv_maxrate=62500 / vbv_bufsize=78125 / nal_hrd=none / filler=0 / ip_ratio=1.40 / aq=1:1.00
Default : Да
Forced : Нет
Аудио
Идентификатор : 2
Формат : AC-3
Формат/Информация : Audio Coding 3
Расширение режима : CM (complete main)
Параметр Endianness формата : Big
Идентификатор кодека : A_AC3
Продолжительность : 2 м. 1 с.
Вид битрейта : Постоянный
Битрейт : 192 Кбит/сек
Каналы : 2 канала
Расположение каналов : Front: L R
Частота : 48,0 КГц
Битовая глубина : 16 бит
Метод сжатия : С потерями
Размер потока : 2,77 Мбайт (9%)
Язык : French
Default : Да
Forced : Нет
Текст
Идентификатор : 3
Формат : UTF-8
Идентификатор кодека : S_TEXT/UTF8
Идентификатор кодека/Информация : UTF-8 Plain Text
Язык : Russian
Default : Да
Forced : Нет

Скриншоты

Резервные скриншоты

-[2'060]
[teatrix.ru].t20139.torrent 
Торрент: Зарегистрирован [ 2016-03-19 00:54 ] · 7DBFB7D38723CFE5B89DA543D7BF991156362093

Скачать .torrent

Скачать

10 KB

Статус: проверено
Скачан: 0 раз
Размер: 32 MB
terms.php



Показать сообщения:    

Текущее время: 02-Дек 23:08

Часовой пояс: UTC + 3


Вы не можете начинать темы
Вы не можете отвечать на сообщения
Вы не можете редактировать свои сообщения
Вы не можете удалять свои сообщения
Вы не можете голосовать в опросах
Вы не можете прикреплять файлы к сообщениям
Вы можете скачивать файлы