(Opera, Vocal) Joseph Calleja - Tenor Arias (Italian Operas by Donizetti, Verdi, Puccini, Cilea) - 2004, FLAC (image+.cue), lossless


 

[Цитировать]

Joseph Calleja - Tenor Arias (Italian Operas by Donizetti, Verdi, Puccini, Cilea)
Жанр: Opera, Vocal
Страна-производитель диска: США
Год издания диска: 2004
Издатель (лейбл): DECCA
Дата записи: 2004
Аудиокодек: FLAC
Тип рипа: image (+.cue)
Битрейт аудио: lossless
Продолжительность: 52:20
Источник: релизер (с благодарностью - luckburz)
Треклист:
Arias from operas by Giuseppe Verdi:
1. La traviata (Act II) - "Lunge da lei... De' miei bollenti spiriti" (feat. Lydia Easley as Annina) [04:13];
2. La traviata (Act II) - "O mio rimorso!" [02:52];
3. Macbeth (Act VI) - "O figli miei... Ah, la paterna mano" [03:46];
4. Rigoletto (Act I) - ''Questa o quella'' [01:43];
5. Rigoletto (Act II) - "Ella mi fu rapita!... Parmi veder le lagrime!'' [04:58];
6. Rigoletto (Act II) - "Duca! Duca!" [02:17];
7. Rigoletto (Act II) - "Possente amor mi chiama" [03:04];
8. Rigoletto (Act III) - "La Donna è mobile" [02:08];
Arias from operas by Gaetano Donizetti:
9. L'elisir d'amore (Act I) - "Quanto è bella, quanto è cara!" [02:27];
10. Lucia di Lammermoor (Act III) - "Tombe degl'avi miei... Fra poco a me ricovero" [06:54];
11. Lucia di Lammermoor (Act III) - "Oh meschina!" [04:12];
12. Lucia di Lammermoor (Act III) - "Tu che a Dio spiegasti l'ali" (feat. Giovanni Battista Parodi as Raimondo)[04:43];
Arias from operas by Francesco Cilea:
13. Adriana Lecouvreur (Act I) - "La dolcissima effigie sorridente" [02:32];
14. L'Arlesiana (Act 2) - "E la solita storia (Lamento di Federico)" [04:23];
Aria from opera by Giacomo Puccini:
15. Madama Butterfly (Act II) - "Addio fiorito asil" [02:03].
Исполнители:
Joseph Calleja (tenor),
Giovanni Battista Parodi (bass) - track 12,
Lydia Easley (mezzo-soprano) - track 1,
Coro Di Milano Giuseppe Verdi,
Orchestra Sinfonica di Milano Giuseppe Verdi,
Riccardo Chailly (conductor).
Recorded at Auditorium di Milano, Milan, Italy, March 2003.

Лог создания рипа

Exact Audio Copy V1.0 beta 3 from 29. August 2011
EAC extraction logfile from 23. February 2014, 18:24
Joseph Calleja, Orchestra Sinfonica di Milano Giuseppe Verdi, Riccardo Chailly / Tenor Arias
Used drive : PIONEER BD-RW BDR-206 Adapter: 0 ID: 2
Read mode : Secure
Utilize accurate stream : Yes
Defeat audio cache : Yes
Make use of C2 pointers : No
Read offset correction : 667
Overread into Lead-In and Lead-Out : No
Fill up missing offset samples with silence : Yes
Delete leading and trailing silent blocks : No
Null samples used in CRC calculations : Yes
Used interface : Native Win32 interface for Win NT & 2000
Used output format : User Defined Encoder
Selected bitrate : 1024 kBit/s
Quality : High
Add ID3 tag : Yes
Command line compressor : C:\Program Files\FLAC\flac.exe
Additional command line options : -5 -T "Artist=%artist%" -T "Title=%title%" -T "Album=%albumtitle%" -T "Date=%year%" -T "Tracknumber=%tracknr%" -T "Genre=%genre%" %source% -o %dest%
TOC of the extracted CD
Track | Start | Length | Start sector | End sector
---------------------------------------------------------
1 | 0:00.00 | 4:13.23 | 0 | 18997
2 | 4:13.23 | 2:57.48 | 18998 | 32320
3 | 7:10.71 | 3:48.71 | 32321 | 49491
4 | 10:59.67 | 1:44.37 | 49492 | 57328
5 | 12:44.29 | 4:58.08 | 57329 | 79686
6 | 17:42.37 | 2:17.27 | 79687 | 89988
7 | 19:59.64 | 3:08.15 | 89989 | 104103
8 | 23:08.04 | 2:13.00 | 104104 | 114078
9 | 25:21.04 | 2:29.67 | 114079 | 125320
10 | 27:50.71 | 6:54.11 | 125321 | 156381
11 | 34:45.07 | 4:11.39 | 156382 | 175245
12 | 38:56.46 | 4:50.38 | 175246 | 197033
13 | 43:47.09 | 2:34.60 | 197034 | 208643
14 | 46:21.69 | 4:25.44 | 208644 | 228562
15 | 50:47.38 | 2:07.54 | 228563 | 238141
Range status and errors
Selected range
Filename F:\=== VINYL RIPS ===\=== EAC===\X FRESH RIP\Joseph Calleja, Riccardo Chailly - Tenor Arias.wav
Peak level 100.0 %
Extraction speed 7.1 X
Range quality 99.9 %
Test CRC 3A35C68F
Copy CRC 3A35C68F
Copy OK
No errors occurred
AccurateRip summary
Track 1 accurately ripped (confidence 16) [DC7EB0C2] (AR v2)
Track 2 accurately ripped (confidence 16) [EA5111E2] (AR v2)
Track 3 accurately ripped (confidence 16) [7B5928AC] (AR v2)
Track 4 accurately ripped (confidence 16) [ADE3C984] (AR v2)
Track 5 accurately ripped (confidence 16) [B57BD094] (AR v2)
Track 6 accurately ripped (confidence 16) [67D170FB] (AR v2)
Track 7 accurately ripped (confidence 16) [CCD7418D] (AR v2)
Track 8 accurately ripped (confidence 16) [AF110722] (AR v2)
Track 9 accurately ripped (confidence 16) [84ED71B0] (AR v2)
Track 10 accurately ripped (confidence 16) [19052836] (AR v2)
Track 11 accurately ripped (confidence 16) [96F0A5C7] (AR v2)
Track 12 accurately ripped (confidence 16) [A7B086E4] (AR v2)
Track 13 accurately ripped (confidence 16) [00410DD2] (AR v2)
Track 14 accurately ripped (confidence 16) [13307CE5] (AR v2)
Track 15 accurately ripped (confidence 15) [DA9F8C08] (AR v2)
All tracks accurately ripped
End of status report

Лог проверки качества

foobar2000 1.1.14a / Dynamic Range Meter 1.1.1
log date: 2015-01-04 19:26:43
--------------------------------------------------------------------------------
Analyzed: Joseph Calleja / Orchestra Sinfonica E Coro Di Milano Giuseppe Verdi / Riccardo Chailly / Tenor Arias
--------------------------------------------------------------------------------
DR Peak RMS Duration Track
--------------------------------------------------------------------------------
DR16 -0.27 dB -21.33 dB 4:14 01-Lunge Da Lei ... De' Miei Bollenti Spiriti ... (La Traviata)
DR13 -0.34 dB -17.36 dB 2:58 02-O Mio Rimorso (La Traviata)
DR13 -6.59 dB -25.08 dB 3:49 03-O Figli, O Figli Miei ... Ah, La Paterna Mano (Macbeth)
DR12 -4.62 dB -22.22 dB 1:45 04-Questa O Quella (Rigoletto)
DR13 -5.95 dB -24.85 dB 4:58 05-Ella Mi Fu Rapita ... Parmi Veder Le Lagrime ... (Rigoletto)
DR14 -0.31 dB -19.26 dB 2:17 06-Duca, Duca ... (Rigoletto)
DR12 -0.27 dB -17.78 dB 3:08 07-Possente Amor Mi Chiama (Rigoletto)
DR15 -0.44 dB -21.69 dB 2:13 08-La Donna Þ Mobile (Rigoletto)
DR14 -1.08 dB -21.32 dB 2:30 09-Quanto Þ Bella (L'elisir D'amore)
DR14 -2.53 dB -22.91 dB 6:54 10-Tombe Degli Avi Miei ... Fra Poco A Me Ricovero (Lucia Di Lammermoor)
DR16 -1.50 dB -22.82 dB 4:12 11-Oh Meschina ... (Lucia Di Lammermoor)
DR14 -0.31 dB -20.66 dB 4:51 12-Tu Che A Dio Spiegasti L'ali (Lucia Di Lammermoor)
DR13 -1.86 dB -21.63 dB 2:35 13-La Dolcissima Effigie (Adriana Lecouvreur)
DR13 -4.55 dB -23.64 dB 4:26 14-E La Solita Storia (L'arlesiana)
DR12 -1.32 dB -18.66 dB 2:07 15-Addio Fiorito Asil (Madama Butterfly)
--------------------------------------------------------------------------------
Number of tracks: 15
Official DR value: DR14
================================================================================



Показать сообщения:    

Текущее время: 06-Дек 20:56

Часовой пояс: UTC + 3


Вы не можете начинать темы
Вы не можете отвечать на сообщения
Вы не можете редактировать свои сообщения
Вы не можете удалять свои сообщения
Вы не можете голосовать в опросах
Вы не можете прикреплять файлы к сообщениям
Вы не можете скачивать файлы