(Classical) Johann Sebastian Bach - Secular Cantatas, Vol.4: Zerreisset, zersprenget, zertrummert die Gruft, BWV205; Vereinigte Zwietracht der wechselnden Saiten, BWV207 - Bach Collegium Japan, Masaaki Suzuki - 2014, FLAC (image+.cue) lossless


Статистика раздачи [Обновить пиров]
Размер:  351 MB   |    Зарегистрирован:  8 месяцев 23 дня   |    Скачан:  0 раз

Полного источника не было: Никогда

Личеров:  39  [  0 KB/s  ]   Подробная статистика пиров
 
   
 
 
 

[Цитировать]

Johann Sebastian Bach - Secular Cantatas, Vol.4: Zerreißet, zersprenget, zertrümmert die Gruft, BWV205; Vereinigte Zwietracht der wechselnden Saiten, BWV207 - Bach Collegium Japan, Masaaki Suzuki
Жанр: Classical
Страна-производитель диска: Sweden
Год издания диска: 2014
Издатель (лейбл): BIS
Номер по каталогу: BIS-SACD-2001
Дата записи: 2013
Аудиокодек: FLAC
Тип рипа: image+.cue
Битрейт аудио: lossless
Продолжительность: 73:06
Источник: собственный рип
Наличие сканов в содержимом раздачи: да
Треклист:
Johann Sebastian Bach (1685–1750)
[1]-[15] Zerreißet, zersprenget, zertrümmert die Gruft, BWV 205
[16]-[26] Vereinigte Zwietracht der wechselnden Saiten, BWV 207
Исполнители:
Joanne Lunn soprano (Pallas, Glück)
Robin Blaze counter-tenor (Pomona, Dankbarkeit)
Wolfram Lattke tenor (Zephyrus, Fleiß)
Roderick Williams bass
Bach Collegium Japan
Masaaki Suzuki

Лог создания рипа

Exact Audio Copy V1.0 beta 3 from 29. August 2011
EAC extraction logfile from 15. January 2015, 8:37
Bach Collegium Japan, Masaaki Suzuki / Bach - Secular Cantatas, Vol. 4
Used drive : HL-DT-STDVDRAM GU70N Adapter: 0 ID: 0
Read mode : Secure
Utilize accurate stream : Yes
Defeat audio cache : Yes
Make use of C2 pointers : No
Read offset correction : 48
Overread into Lead-In and Lead-Out : No
Fill up missing offset samples with silence : Yes
Delete leading and trailing silent blocks : No
Null samples used in CRC calculations : Yes
Used interface : Native Win32 interface for Win NT & 2000
Used output format : User Defined Encoder
Selected bitrate : 128 kBit/s
Quality : High
Add ID3 tag : No
Command line compressor : C:\Program Files (x86)\Exact Audio Copy\Flac\flac.exe
Additional command line options : -V -8 -T "Date=%year%" -T "Genre=%genre%" %source%
TOC of the extracted CD
Track | Start | Length | Start sector | End sector
---------------------------------------------------------
1 | 0:00.00 | 6:03.02 | 0 | 27226
2 | 6:03.02 | 1:38.06 | 27227 | 34582
3 | 7:41.08 | 4:05.24 | 34583 | 52981
4 | 11:46.32 | 0:40.43 | 52982 | 56024
5 | 12:27.00 | 4:07.11 | 56025 | 74560
6 | 16:34.11 | 0:36.12 | 74561 | 77272
7 | 17:10.23 | 3:43.63 | 77273 | 94060
8 | 20:54.11 | 0:45.57 | 94061 | 97492
9 | 21:39.68 | 3:30.64 | 97493 | 113306
10 | 25:10.57 | 2:15.10 | 113307 | 123441
11 | 27:25.67 | 3:30.47 | 123442 | 139238
12 | 30:56.39 | 1:29.23 | 139239 | 145936
13 | 32:25.62 | 2:50.44 | 145937 | 158730
14 | 35:16.31 | 0:39.74 | 158731 | 161729
15 | 35:56.30 | 3:22.28 | 161730 | 176907
16 | 39:18.58 | 4:40.40 | 176908 | 197947
17 | 43:59.23 | 1:54.49 | 197948 | 206546
18 | 45:53.72 | 3:51.71 | 206547 | 223942
19 | 49:45.68 | 2:01.22 | 223943 | 233039
20 | 51:47.15 | 4:52.35 | 233040 | 254974
21 | 56:39.50 | 1:08.50 | 254975 | 260124
22 | 57:48.25 | 1:41.08 | 260125 | 267707
23 | 59:29.33 | 5:19.55 | 267708 | 291687
24 | 64:49.13 | 2:56.18 | 291688 | 304905
25 | 67:45.31 | 1:16.16 | 304906 | 310621
26 | 69:01.47 | 4:05.05 | 310622 | 329001
Range status and errors
Selected range
Filename C:\temp\BIS-SACD-2001 - Bach - Secular Cantatas, Vol.4 - Suzuki\Bach - Secular Cantatas, Vol. 4.wav
Peak level 96.6 %
Extraction speed 2.3 X
Range quality 99.9 %
Test CRC 2B50FBD7
Copy CRC 2B50FBD7
Copy OK
No errors occurred
AccurateRip summary
Track 1 accurately ripped (confidence 1) [292BDF01] (AR v2)
Track 2 accurately ripped (confidence 1) [4603178B] (AR v2)
Track 3 accurately ripped (confidence 1) [2B3918C5] (AR v2)
Track 4 accurately ripped (confidence 1) [B8146D81] (AR v2)
Track 5 accurately ripped (confidence 1) [72C3392A] (AR v2)
Track 6 accurately ripped (confidence 1) [5741C0CD] (AR v2)
Track 7 accurately ripped (confidence 1) [7BCCD031] (AR v2)
Track 8 accurately ripped (confidence 1) [0870DC3B] (AR v2)
Track 9 accurately ripped (confidence 1) [21DD240B] (AR v2)
Track 10 accurately ripped (confidence 1) [50FE2736] (AR v2)
Track 11 accurately ripped (confidence 1) [AFCB8C89] (AR v2)
Track 12 accurately ripped (confidence 1) [9C77B371] (AR v2)
Track 13 accurately ripped (confidence 1) [296CE6E7] (AR v2)
Track 14 accurately ripped (confidence 1) [D635FC3A] (AR v2)
Track 15 accurately ripped (confidence 1) [C5ABCA7D] (AR v2)
Track 16 accurately ripped (confidence 1) [EE34A259] (AR v2)
Track 17 accurately ripped (confidence 1) [02DA06D1] (AR v2)
Track 18 accurately ripped (confidence 1) [CC0462A9] (AR v2)
Track 19 accurately ripped (confidence 1) [F2E03D5D] (AR v2)
Track 20 accurately ripped (confidence 1) [EC86B912] (AR v2)
Track 21 accurately ripped (confidence 1) [040AAE70] (AR v2)
Track 22 accurately ripped (confidence 1) [D7264823] (AR v2)
Track 23 accurately ripped (confidence 1) [4F4D8AC8] (AR v2)
Track 24 accurately ripped (confidence 1) [7DD5ED5B] (AR v2)
Track 25 accurately ripped (confidence 1) [0A11EB08] (AR v2)
Track 26 accurately ripped (confidence 1) [E0F5A182] (AR v2)
All tracks accurately ripped
End of status report
==== Log checksum F054C7E64535696BC97EC4828070710C64EEF8BC8541BF9165D9E8DACA688E2C ====
[teatrix.ru].t20144.torrent 
Торрент: Зарегистрирован [ 2016-03-19 00:54 ] · 4C59E301A54DEB66E201D32CC81D4ED896D1B34B

Скачать .torrent

Скачать

29 KB

Статус: проверено
Скачан: 0 раз
Размер: 351 MB
terms.php



Быстрый ответ

Имя:

      
Для отправки сообщений необходимо включить JavaScript
Показать сообщения:    

Текущее время: 11-Дек 16:54

Часовой пояс: UTC + 3


Вы можете начинать темы
Вы можете отвечать на сообщения
Вы не можете редактировать свои сообщения
Вы не можете удалять свои сообщения
Вы не можете голосовать в опросах
Вы не можете прикреплять файлы к сообщениям
Вы можете скачивать файлы