[SACD-R][OF] Joseph Calleja - Tenor Arias - 2004 (Classical, Opera, Vocal)


Статистика раздачи [Обновить пиров]
Размер:  2.91 GB   |    Зарегистрирован:  8 месяцев 21 день   |    Скачан:  0 раз

Полного источника не было: Никогда

Личеров:  36  [  0 KB/s  ]   Подробная статистика пиров
 
   
 
 
 

[Цитировать]

Joseph Calleja / Tenor Arias
Формат записи/Источник записи: [SACD-R][OF]
Год издания: Март, Июнь, Сентябрь 2004
Жанр: Classical, Opera, Vocal
Издатель(лейбл): Decca
Продолжительность: 52:20
Наличие сканов в содержимом раздачи: Да
Треклист:
Arias from operas by Giuseppe Verdi:
1. La traviata (Act II) - "Lunge da lei... De' miei bollenti spiriti" (feat. Lydia Easley, mezzo-soprano, as Annina) [04:13];
2. La traviata (Act II) - "O mio rimorso!" [02:52];
3. Macbeth (Act VI) - "O figli miei... Ah, la paterna mano" [03:46];
4. Rigoletto (Act I) - ''Questa o quella'' [01:43];
5. Rigoletto (Act II) - "Ella mi fu rapita!... Parmi veder le lagrime!'' [04:58];
6. Rigoletto (Act II) - "Duca! Duca!" (feat. Coro Di Milano Giuseppe Verdi) [02:17];
7. Rigoletto (Act II) - "Possente amor mi chiama" (feat. Coro Di Milano Giuseppe Verdi) [03:04];
8. Rigoletto (Act III) - "La Donna è mobile" [02:08];
Arias from operas by Gaetano Donizetti:
9. L'elisir d'amore (Act I) - "Quanto è bella, quanto è cara!" [02:27];
10. Lucia di Lammermoor (Act III) - "Tombe degl'avi miei... Fra poco a me ricovero" [06:54];
11. Lucia di Lammermoor (Act III) - "Oh meschina!" (feat. Coro Di Milano Giuseppe Verdi) [04:12];
12. Lucia di Lammermoor (Act III) - "Tu che a Dio spiegasti l'ali" (feat. Giovanni Battista Parodi, bass, as Raimondo, Coro Di Milano Giuseppe Verdi) [04:43];
Arias from operas by Francesco Cilea:
13. Adriana Lecouvreur (Act I) - "La dolcissima effigie sorridente" [02:32];
14. L'Arlesiana (Act 2) - "E la solita storia (Lamento di Federico)" [04:23];
Aria from opera by Giacomo Puccini:
15. Madama Butterfly (Act II) - "Addio fiorito asil" [02:03].
Recorded at Auditorium di Milano, Milan, Italy, March, June, September 2003.
Оркестр: Orchestra Sinfonica di Milano Giuseppe Verdi
Композиторы: Gaetano Donizetti, Giuseppe Verdi, Giacomo Puccini, Francesco Cilea
Дирижер: Riccardo Chailly
Контейнер: ISO (*.iso)
Формат:DSD64
Тип рипа: image
Разрядность: 2,8 MHz/1 Bit
Количество каналов: 2.0
Источник (релизер): luckburz

Состав

Giovanni Battista Parodi (bass) - track 12,
Lydia Easley (mezzo-soprano) - track 1,
Coro Di Milano Giuseppe Verdi - tracks 6,7 & 11, 12.

Dynamic Range Meter

foobar2000 1.1.11 / 1.1.1
log date: 2014-02-23 20:22:38
--------------------------------------------------------------------------------
Analyzed: Joseph Calleja / Orchestra Sinfonica E Coro Di Milano Giuseppe Verdi / Riccardo Chailly / Tenor Arias
--------------------------------------------------------------------------------
DR Peak RMS Duration Track
--------------------------------------------------------------------------------
DR16 -0.27 dB -21.33 dB 4:14 01-Lunge Da Lei ... De' Miei Bollenti Spiriti ... (La Traviata)
DR13 -0.34 dB -17.36 dB 2:58 02-O Mio Rimorso (La Traviata)
DR13 -6.59 dB -25.08 dB 3:49 03-O Figli, O Figli Miei ... Ah, La Paterna Mano (Macbeth)
DR12 -4.62 dB -22.22 dB 1:45 04-Questa O Quella (Rigoletto)
DR13 -5.95 dB -24.85 dB 4:58 05-Ella Mi Fu Rapita ... Parmi Veder Le Lagrime ... (Rigoletto)
DR14 -0.31 dB -19.26 dB 2:17 06-Duca, Duca ... (Rigoletto)
DR12 -0.27 dB -17.78 dB 3:08 07-Possente Amor Mi Chiama (Rigoletto)
DR15 -0.44 dB -21.69 dB 2:13 08-La Donna Гћ Mobile (Rigoletto)
DR14 -1.08 dB -21.32 dB 2:30 09-Quanto Гћ Bella (L'elisir D'amore)
DR14 -2.53 dB -22.91 dB 6:54 10-Tombe Degli Avi Miei ... Fra Poco A Me Ricovero (Lucia Di Lammermoor)
DR16 -1.50 dB -22.82 dB 4:12 11-Oh Meschina ... (Lucia Di Lammermoor)
DR14 -0.31 dB -20.66 dB 4:51 12-Tu Che A Dio Spiegasti L'ali (Lucia Di Lammermoor)
DR13 -1.86 dB -21.63 dB 2:35 13-La Dolcissima Effigie (Adriana Lecouvreur)
DR13 -4.55 dB -23.64 dB 4:26 14-E La Solita Storia (L'arlesiana)
DR12 -1.32 dB -18.66 dB 2:07 15-Addio Fiorito Asil (Madama Butterfly)
--------------------------------------------------------------------------------
Number of tracks: 15
Official DR value: DR14
Samplerate: 88200 Hz
Channels: 2
Bits per sample: 24
Bitrate: 2421 kbps
[teatrix.ru].t20145.torrent 
Торрент: Зарегистрирован [ 2016-03-19 00:54 ] · E87B5DC27D0A5FDFBEABA3C3249A89EF64D723D1

Скачать .torrent

Скачать

17 KB

Статус: проверено
Скачан: 0 раз
Размер: 2.91 GB
terms.php



Быстрый ответ

Имя:

      
Для отправки сообщений необходимо включить JavaScript
Показать сообщения:    

Текущее время: 09-Дек 08:49

Часовой пояс: UTC + 3


Вы можете начинать темы
Вы можете отвечать на сообщения
Вы не можете редактировать свои сообщения
Вы не можете удалять свои сообщения
Вы не можете голосовать в опросах
Вы не можете прикреплять файлы к сообщениям
Вы можете скачивать файлы