Евгений Гришковец. Новая версия спектакля "Одновременно" (Евгений Гришковец) [2014, моноспектакль, WEB-DL]


 

[Цитировать]

Евгений Гришковец. Новая версия спектакля "Одновременно"
Жанр: моноспектакль
Год выпуска: 2014
Продолжительность: 02:16:43
Перевод: Не требуется
Язык: Русский
Cубтитры: нет
Оригинальная аудиодорожка: русский
Режиссёр: Евгений Гришковец
В ролях: Евгений Гришковец
Описание: Осенью 2014 года Евгений Гришковец решил записать обновлённую версию спектакля "Одновременно", так как первой видеоверсии уже более 11 лет. Новая редакция спектакля играется уже несколько лет, но до сих пор не была нигде задокументирована.
Запись с YouTube, возможно, будет переиздание на DVD
Доп. информация:
От автора:
"Осенью прошлого года мы записали, а потом смонтировали и сделали видео обновлённого спектакля «ОдноврЕмЕнно». Вот это видео я и дарю вам сегодня, как в конце прошлого года подарил видео новой и актуальной редакции спектакля «Как я съел собаку».
Спектакль «ОдноврЕмЕнно» был сделан мною и показан публике на фестивале «NET» осенью 1999 года. Это был мой второй спектакль. Это был очень важный и труднейший второй шаг в избранном мною направлении. После оглушительного успеха «Как я съел собаку» к моей второй работе был проявлен большой интерес и внимание. Премьеру «ОдноврЕмЕнно» посетили все без исключения тогдашние пишущие о театре журналисты и критики…"
Качество видео: WEB-DL
Формат видео: MP4
Видео: MPEG4 Video (H264) 1104x720 25fps
Аудио: AAC 44100Hz stereo 128kbps

MediaInfo

Видео
Идентификатор : 1
Формат : AVC
Формат/Информация : Advanced Video Codec
Идентификатор кодека : avc1
Идентификатор кодека/Информация : Advanced Video Coding
Продолжительность : 2 ч. 16 м.
Вид битрейта : Переменный
Битрейт : 709 Кбит/сек
Ширина : 1104 пикселя
Высота : 720 пикселей
Соотношение сторон : 3:2
Частота кадров : 25,000 кадров/сек
Бит/(Пиксели*Кадры) : 0.036
Размер потока : 1,20 Гбайт (91%)
Дата кодирования : UTC 2014-12-02 15:05:05
Дата пометки : UTC 2014-12-02 15:05:05
Аудио
Идентификатор : 1
Формат : AAC
Формат/Информация : Advanced Audio Codec
Профиль формата : LC
Идентификатор кодека : 40
Продолжительность : 2 ч. 16 м.
Битрейт : 128 Кбит/сек
Каналы : 2 канала
Расположение каналов : Front: L R
Частота : 44,1 КГц
Метод сжатия : С потерями
Размер потока : 125 Мбайт (9%)
Размер потока оригинала : 1,33 Гбайт (100%)
Дата кодирования : UTC 2014-12-02 14:42:50
Дата пометки : UTC 2014-12-02 14:42:50
mdhd_Duration : 8203749

Скриншот с названием постановки

В видеозаписи отсутствует надпись с названием спектакля

Скриншоты




Показать сообщения:    

Текущее время: 08-Дек 08:56

Часовой пояс: UTC + 3


Вы не можете начинать темы
Вы не можете отвечать на сообщения
Вы не можете редактировать свои сообщения
Вы не можете удалять свои сообщения
Вы не можете голосовать в опросах
Вы не можете прикреплять файлы к сообщениям
Вы не можете скачивать файлы