Лучшее из Верди - Оперные хоры / Best of Verdi - Opera Choruses [2005-2014, Opera, Blu-ray 1080i]


 

[Цитировать]

Лучшее из Верди - Оперные хоры / Best of Verdi - Opera Choruses
Год выпуска: 2005-2014
Лейбл: C MAJOR, Unitel Classica
Страна-производитель: США
Жанр: Opera
Продолжительность: 01:34:59
Язык: Итальянский
Субтитры: Английские, французские, немецкие, итальянские, испанские, китайские, корейские, японские
Дирижер: Antonello Allemandi (Антонелло Аллеманди), Bruno Bartoletti (Бруно Бартолетти), Andrea Battistoni (Андреа Баттистони), Boris Brott (Борис Бротт), Daniele Callegari (Даниэле Каллегари), Antonino Fogliani (Антонино Фольяни), Gianluigi Gelmetti (Джанлуиджи Джельметти), Nicola Luisotti (Никола Луизотти), Michele Mariotti (Микеле Мариотти), Riccardo Muti (Риккардо Мути), Donato Renzetti (Донато Ренцетти), Yuri Temirkanov (Юрий Темирканов), Fabrizio Ventura (Фабрицио Вентура), Massimo Zanetti (Массимо Дзанетти)
Исполнители: Coro Lirico Amadeus Teatro Comunale di Modena (хор городского театра Модены), Parma Teatro Regio Chorus (хор Королевского оперного театра Пармы), Salzburg Festival Children's Chorus (детский хор Зальцбургского фестиваля), San Carlo Theatre Chorus (хор театра Сан Карло в Неаполе), Trieste Teatro Giuseppe Verdi Chorus (хор Оперного театра Джузеппе Верди в Триесте), Vienna State Opera Chorus (хор Веской оперы)
Orchestra Regionale dell'Emilia-Romagna (оркестр Региональной Энотекой Эмилии-Романьи), Parma Teatro Regio Orchestra (оркестр Королевского оперного театра Пармы), Salzburg Mozarteum Orchestra (Зальцбургий оркестр "Mozarteum"), San Carlo Theatre Orchestra (Оркестр театра Сан Карло (Неаполь)), Trieste Teatro Giuseppe Verdi Orchestra (Оркестр Оперного театра Джузеппе Верди в Триесте), Vienna Philharmonic Orchestra (оркестр Венской филармонии)
Треклист:
01. Nabucco - Gli arredi festivi giu candano infranti / Va, pensiero, sull ali dorate
02. I Lombardi alla prima crociata - Gerusalem! Gerusalem / O Signore, dal tetto natio
03. Ernani - Esultiamo! Letizia ne innondi / Si ridesti il Leon di Castiglia
04. I due Foscari - Silenzio, mistero
05. Attila - Urli, rapine
06. Macbeth - Tre volte miagola la gatta in fregola / Patria oppressa!
07. I masnadieri - Le rube, gli stupri
08. La battaglia di Legnano - Viva Italia! Sacro un patto
09. Rigoletto - Zitti, zitti, moviamo a vendetta
10. Il trovatore - Vedi! le fosche notturne spoglie / Squilli, echeggi la tromba guerriera
11. La traviata - Noi siamo zingarelle … Di Madride noi siam mattadori
12. La forza del destino - La Vergine degli Angeli / Compagni, sostiamo
13. Don Carlo - Spuntato ecco il dì d’esultanza
14. Aida - Gloria all’Egitto ad Iside
15. Otello - Fuoco di gioia!
16. Falstaff - Tutto nel mondo e burla
Описание: В диск включены лучшие хоровые номераиз опер Джузеппе Верди "Набуко", "Ломбардцы в первом крестовом походе", "Эрнани", "Двое Фоскари", "Атилла", "Макбет", "Разбойники", "Битва при Леньяно", "Риголетто", "Трубадур", "Сила судьбы", "Дон Карлос", "Отелло", "Фальстаф" в исполнении хоров знаменитых оперных театров.
Доп. информация: C Major Entertainment presents, in both single-disc DVD and Blu-ray editions, the Best of Verdi Opera Choruses. During the course of the following ninety minutes, viewers will both see and hear the choir hits from an array of Verdi Operas, including Nabucco, La Traviata, Aida, Il Trovatore, and several others. Among the Verdi choruses to be heard sung by the Orchestra e Coro del Teatro Regio di Parma and the Orchestra e Coro del Teatro di San Carlo, among others, are Tre volte miagola la gatta in fregola Patria oppressa! from Macbeth, Vedi! Le fosche notturne spoglie from Il Trovatore, Noi siamo zingarelle ... Di Madride noi siam mattadori from La Traviata, Tutto nel mondo e burla from Falstaff, and more.
Бонус: Анонсы дисков
Качество видео: Blu-ray
Формат/Контейнер: BDMV
Видео кодек: MPEG4
Аудио кодек: LPCM, DTS
Видео поток: MPEG-4 Video, 1920x1080, 21940 kbps, 29.970 fps
Аудио поток: LPCM, 2304 kbps, 48 kHz, 2 ch. DTS-HD MA, 3594 kbps, 48 kHz, 6 ch

BD-Info

DISC INFO:
Disc Title: Best of Verdi - Opera Choruses (2005-2014) (Blu-ray 1080i, AVC, DTS-HD 5.1)
Disc Size: 22 603 633 120 bytes
Protection: AACS
BD-Java: No
BDInfo: 0.5.8
PLAYLIST REPORT:
Name: 00003.MPLS
Length: 1:34:59.827 (h:m:s.ms)
Size: 21 032 755 200 bytes
Total Bitrate: 29,52 Mbps
VIDEO:
Codec Bitrate Description
----- ------- -----------
MPEG-4 AVC Video 21940 kbps 1080i / 29,970 fps / 16:9 / High Profile 4.1
AUDIO:
Codec Language Bitrate Description
----- -------- ------- -----------
LPCM Audio Italian 2304 kbps 2.0 / 48 kHz / 2304 kbps / 24-bit
DTS-HD Master Audio Italian 3594 kbps 5.1 / 48 kHz / 3594 kbps / 24-bit (DTS Core: 5.1 / 48 kHz / 1509 kbps / 24-bit)
SUBTITLES:
Codec Language Bitrate Description
----- -------- ------- -----------
Presentation Graphics Italian 12,079 kbps
Presentation Graphics English 13,435 kbps
Presentation Graphics German 14,786 kbps
Presentation Graphics French 14,053 kbps
Presentation Graphics Spanish 13,672 kbps
Presentation Graphics Chinese 10,822 kbps
Presentation Graphics Korean 11,172 kbps
Presentation Graphics Japanese 9,782 kbps
FILES:
Name Time In Length Size Total Bitrate
---- ------- ------ ---- -------------
00007.M2TS 0:00:00.000 1:34:41.742 21 023 109 120 29 601
00006.M2TS 1:34:41.742 0:00:09.042 4 823 040 4 267
00001.M2TS 1:34:50.785 0:00:09.042 4 823 040 4 267
Семпл

Скриншоты


Скриншоты доп. материалов





Показать сообщения:    

Текущее время: 07-Дек 23:21

Часовой пояс: UTC + 3


Вы не можете начинать темы
Вы не можете отвечать на сообщения
Вы не можете редактировать свои сообщения
Вы не можете удалять свои сообщения
Вы не можете голосовать в опросах
Вы не можете прикреплять файлы к сообщениям
Вы не можете скачивать файлы