(Classical, contemporary) John Pickard - Tenebrae; Piano Concerto; Sea-Change - Norrkoping Symphony Orchestra, Martyn Brabbins, Fredrik Ullén (Ullen) - 2012, FLAC (image+.cue) lossless


 

[Цитировать]

John Pickard - Tenebrae; Piano Concerto; Sea-Change - Norrköping Symphony Orchestra, Martyn Brabbins, Fredrik Ullén
Жанр: Classical, contemporary
Страна-производитель диска: Sweden
Год издания диска: 2012
Издатель (лейбл): BIS
Номер по каталогу: BIS-CD-1873
Дата записи: 2010, 2011
Аудиокодек: FLAC
Тип рипа: image+.cue
Битрейт аудио: lossless
Продолжительность: 74:02
Источник: собственный рип
Наличие сканов в содержимом раздачи: да
Треклист:
John Pickard (b. 1963)
[1]-[3] Piano Concerto (1999–2000)
Fredrik Ullén piano
[4] Sea-Change for orchestra (1988–89)
[5] Tenebrae for orchestra (2008–09)
Исполнители:
Norrköping Symphony Orchestra (SON)
Martyn Brabbins
conductor
Fredrik Ullén piano

Лог создания рипа

Exact Audio Copy V1.0 beta 3 from 29. August 2011
EAC extraction logfile from 16. January 2015, 0:10
Norrkoping Symphony Orchestra, Martyn Brabbins / Pickard - Piano Concerto; Sea-Change; Tenebrae
Used drive : HL-DT-STDVDRAM GU70N Adapter: 0 ID: 0
Read mode : Secure
Utilize accurate stream : Yes
Defeat audio cache : Yes
Make use of C2 pointers : No
Read offset correction : 48
Overread into Lead-In and Lead-Out : No
Fill up missing offset samples with silence : Yes
Delete leading and trailing silent blocks : No
Null samples used in CRC calculations : Yes
Used interface : Native Win32 interface for Win NT & 2000
Used output format : User Defined Encoder
Selected bitrate : 128 kBit/s
Quality : High
Add ID3 tag : No
Command line compressor : C:\Program Files (x86)\Exact Audio Copy\Flac\flac.exe
Additional command line options : -V -8 -T "Date=%year%" -T "Genre=%genre%" %source%
TOC of the extracted CD
Track | Start | Length | Start sector | End sector
---------------------------------------------------------
1 | 0:00.00 | 9:02.43 | 0 | 40692
2 | 9:02.43 | 12:06.28 | 40693 | 95170
3 | 21:08.71 | 10:10.64 | 95171 | 140984
4 | 31:19.60 | 17:33.38 | 140985 | 219997
5 | 48:53.23 | 25:09.13 | 219998 | 333185
Range status and errors
Selected range
Filename C:\temp\BIS-CD-1873 - Pickard - Piano Concerto; Sea-Change; Tenebrae\Pickard - Piano Concerto; Sea-Change; Tenebrae.wav
Peak level 100.0 %
Extraction speed 2.3 X
Range quality 99.9 %
Test CRC D8063907
Copy CRC D8063907
Copy OK
No errors occurred
AccurateRip summary
Track 1 accurately ripped (confidence 1) [C1021876] (AR v2)
Track 2 accurately ripped (confidence 1) [2EF90120] (AR v2)
Track 3 accurately ripped (confidence 1) [70C02D76] (AR v2)
Track 4 accurately ripped (confidence 1) [84203C21] (AR v2)
Track 5 accurately ripped (confidence 1) [A67013C8] (AR v2)
All tracks accurately ripped
End of status report
==== Log checksum F827A07A32DA293BD593F4D49618E95DA92EE0FBB927D63E9E29A5770003A30B ====



Показать сообщения:    

Текущее время: 24-Янв 00:02

Часовой пояс: UTC + 3


Вы не можете начинать темы
Вы не можете отвечать на сообщения
Вы не можете редактировать свои сообщения
Вы не можете удалять свои сообщения
Вы не можете голосовать в опросах
Вы не можете прикреплять файлы к сообщениям
Вы не можете скачивать файлы