(Classical) The Very Best of Beniamino Gigli [Verdi, Leoncavallo, Puccini, Giordano, Mascagni, Gounod, Donizetti] / Беньямино Джильи Лучшее [Верди, Леонкавалло, Пуччини, Джордано, Масканьи, Гуно, Доницетти] (2 CD)- 2003, FLAC (image+.cue) lossless


 

[Цитировать]

The Very Best of Beniamino Gigli / Беньямино Джильи. Лучшее (2 CD)
Жанр: Classical
Год издания диска: 2003
Издатель (лейбл): EMI Classics
Аудиокодек: FLAC
Тип рипа: image+.cue
Битрейт аудио: lossless
Продолжительность: 02:31:33
Источник: собственный рип
Наличие сканов в содержимом раздачи: нет
Треклист:

CD1 - 01:15:09

1. Verdi: Aida - Se Quel Guerrier Io Fossi!...Celeste Aida
2. Orchestra Of La Scala Milan - Verdi: Rigoletto - La Donna E Mobile
3. Donizetti: L'Elisir D'Amore - Una Furtiva Lagrima
4. Gounod: Faust - Qual Turbamento...Salve Dimora, Casta E Pura
5. Massenet: Manon - O Dolce Incanto...Chiuder Gli Occhi
6. Puccini: La Bohème - Che Gelida Manina
Puccini: Tosca
7. Recondita Armonia
8. E Lucevan Le Stelle
9. Puccini: Madama Butterfly - Dovunque Al Mondo
10. Leoncavallo: Pagliacci - Recitar!...Vesti La Giubba
Mascagni: Cavalleria Rusticana
11. Intanto Amici, Qua...Viva Il Vino Spumeggiante
12. Mamma, Quel Vino È Generoso
13. Mascagni: Isabeau - Non Colombelle!...Ah! Tu Ch'Odi Lo Mio Grido
14. Puccini: Manon Lescaut - Che Avvien?!...Ah! Non V'Avicinate...No Pazzo Son!
15. Rossini: Stabat Mater - Cujus Animam Gementem
16. Franck: Panis Angelicus
17. Verdi: Ingemisco From Messa Da Requiem
18. Schubert: Ellens Gesang #3, Op. 52/6, D 839, Ave Maria
19. Cardillo: Core 'ngrato
20. Denza: Funiculì-Funiculà

CD2 - 01:16:24

1. Capua: O Sole Mio
2. Tosti: La Serenata
3. Rossini: Soirées Musicales - 8. La Danza (Tarantella Napolitana)
4. Tosti: Aprile
5. Leoncavallo: Mattinata
6. Curtis: Torna A Surriento
7. Tosti: L'Ultima Canzone
8. Verdi: La Forza Del Destino - Act 3: La Vita È Inferno...O Tu Che In Seno Agli Angeli
9. Cilea: L' Arlesiana - E La Solita Storia
Giordano: Andrea Chénier
10. Un Di All`Azzuro Spazio
11. Andrea Chénier...Corragio!...Si, Fui Soldat
12. Come Un Bel Dì Di Maggio
Verdi: Un Ballo In Maschera
13. Di' Tu Se Fedele
14. Forse La Soglia Attinse...Ma Se M' È Forza Perderti
15. Halévy: La Juive - Rachel, Quand Du Seigneur
16. Lalo: Le Roi D'Ys - Puisqu'On Ne Peut Fléchir...Vainement, Ma Bien Aimée
17. Massenet: Manon - Io Son Sol...Ah! Dispar, Vision
18. Massenet: Werther - Ah! Non Mi Ridestar
19. Donizetti: L'Elisir D'Amore - Quanto È Bella
20. Puccini: Turandot - Nessun Dorma
Исполнители:
Beniamino Gigli / Беньямино Джильи

Лог создания рипа

CD1

X Lossless Decoder version 20141129 (148.1)
XLD extraction logfile from 2015-01-20 08:43:37 +0300
Различные исполнители / The Very Best Of Beniamino Gigli [Disc 1]
Used drive : TSSTcorp CDDVDW SE-S084C (revision TS01)
Media type : Pressed CD
Ripper mode : CDParanoia III 10.2
Disable audio cache : OK for the drive with a cache less than 2750KiB
Make use of C2 pointers : NO
Read offset correction : 6
Max retry count : 20
Gap status : Analyzed, Appended
TOC of the extracted CD
Track | Start | Length | Start sector | End sector
---------------------------------------------------------
1 | 00:00:00 | 04:33:02 | 0 | 20476
2 | 04:33:02 | 02:18:63 | 20477 | 30889
3 | 06:51:65 | 04:25:47 | 30890 | 50811
4 | 11:17:37 | 04:44:08 | 50812 | 72119
5 | 16:01:45 | 03:33:10 | 72120 | 88104
6 | 19:34:55 | 04:34:07 | 88105 | 108661
7 | 24:08:62 | 02:47:43 | 108662 | 121229
8 | 26:56:30 | 02:45:52 | 121230 | 133656
9 | 29:42:07 | 03:04:53 | 133657 | 147509
10 | 32:46:60 | 03:33:35 | 147510 | 163519
11 | 36:20:20 | 03:29:32 | 163520 | 179226
12 | 39:49:52 | 04:46:73 | 179227 | 200749
13 | 44:36:50 | 03:58:05 | 200750 | 218604
14 | 48:34:55 | 03:17:72 | 218605 | 233451
15 | 51:52:52 | 04:19:05 | 233452 | 252881
16 | 56:11:57 | 03:57:08 | 252882 | 270664
17 | 60:08:65 | 03:47:05 | 270665 | 287694
18 | 63:55:70 | 04:33:10 | 287695 | 308179
19 | 68:29:05 | 03:55:17 | 308180 | 325821
20 | 72:24:22 | 02:45:15 | 325822 | 338211
List of alternate offset correction values
# | Absolute | Relative | Confidence
------------------------------------------
1 | -658 | -664 | 2
AccurateRip Summary (DiscID: 003634d9-031a50d1-2b119d14)
Track 01 : OK (v1+v2, confidence 4/6)
Track 02 : OK (v1+v2, confidence 4/6)
Track 03 : OK (v1+v2, confidence 4/6)
Track 04 : OK (v1+v2, confidence 4/6)
Track 05 : OK (v1+v2, confidence 4/6)
Track 06 : OK (v1+v2, confidence 4/6)
Track 07 : OK (v1+v2, confidence 4/6)
Track 08 : OK (v1+v2, confidence 4/6)
Track 09 : OK (v1+v2, confidence 4/6)
Track 10 : OK (v1+v2, confidence 4/6)
Track 11 : OK (v1+v2, confidence 4/6)
Track 12 : OK (v1+v2, confidence 4/6)
Track 13 : OK (v1+v2, confidence 4/6)
Track 14 : OK (v1+v2, confidence 4/6)
Track 15 : OK (v1+v2, confidence 4/6)
Track 16 : OK (v1+v2, confidence 4/6)
Track 17 : OK (v1+v2, confidence 4/6)
Track 18 : OK (v1+v2, confidence 4/6)
Track 19 : OK (v1+v2, confidence 4/6)
Track 20 : OK (v1+v2, confidence 4/6)
->All tracks accurately ripped.
All Tracks
Filename : /Users/alcofribasnasier/Music/Export/The Very Best Of Beniamino Gigli [Disc 1].flac
CRC32 hash (test run) : 85CDC739
CRC32 hash : 85CDC739
CRC32 hash (skip zero) : BF4DA267
Statistics
Read error : 0
Skipped (treated as error) : 0
Edge jitter error (maybe fixed) : 0
Atom jitter error (maybe fixed) : 0
Drift error (maybe fixed) : 0
Dropped bytes error (maybe fixed) : 0
Duplicated bytes error (maybe fixed) : 0
Inconsistency in error sectors : 0
Track 01
Pre-gap length : 00:02:00
CRC32 hash (test run) : 307B9207
CRC32 hash : 307B9207
CRC32 hash (skip zero) : 4AF2E146
AccurateRip v1 signature : 339A6BDD
AccurateRip v2 signature : 5B1A45C0
->Accurately ripped (v1+v2, confidence 2+2/6)
Statistics
Read error : 0
Skipped (treated as error) : 0
Edge jitter error (maybe fixed) : 0
Atom jitter error (maybe fixed) : 0
Drift error (maybe fixed) : 0
Dropped bytes error (maybe fixed) : 0
Duplicated bytes error (maybe fixed) : 0
Inconsistency in error sectors : 0
Track 02
Pre-gap length : 00:04:20
CRC32 hash (test run) : CF078216
CRC32 hash : CF078216
CRC32 hash (skip zero) : B26BA3C5
AccurateRip v1 signature : E645A842
AccurateRip v2 signature : 3683B7F0
->Accurately ripped (v1+v2, confidence 2+2/6)
Statistics
Read error : 0
Skipped (treated as error) : 0
Edge jitter error (maybe fixed) : 0
Atom jitter error (maybe fixed) : 0
Drift error (maybe fixed) : 0
Dropped bytes error (maybe fixed) : 0
Duplicated bytes error (maybe fixed) : 0
Inconsistency in error sectors : 0
Track 03
Pre-gap length : 00:04:53
CRC32 hash (test run) : 27F7E227
CRC32 hash : 27F7E227
CRC32 hash (skip zero) : C8DF3717
AccurateRip v1 signature : B29566F8
AccurateRip v2 signature : F353A9EC
->Accurately ripped (v1+v2, confidence 2+2/6)
Statistics
Read error : 0
Skipped (treated as error) : 0
Edge jitter error (maybe fixed) : 0
Atom jitter error (maybe fixed) : 0
Drift error (maybe fixed) : 0
Dropped bytes error (maybe fixed) : 0
Duplicated bytes error (maybe fixed) : 0
Inconsistency in error sectors : 0
Track 04
Pre-gap length : 00:04:40
CRC32 hash (test run) : C3AA91EE
CRC32 hash : C3AA91EE
CRC32 hash (skip zero) : 9849FF7E
AccurateRip v1 signature : DB2E10AD
AccurateRip v2 signature : 821E6A44
->Accurately ripped (v1+v2, confidence 2+2/6)
Statistics
Read error : 0
Skipped (treated as error) : 0
Edge jitter error (maybe fixed) : 0
Atom jitter error (maybe fixed) : 0
Drift error (maybe fixed) : 0
Dropped bytes error (maybe fixed) : 0
Duplicated bytes error (maybe fixed) : 0
Inconsistency in error sectors : 0
Track 05
Pre-gap length : 00:04:05
CRC32 hash (test run) : C831204B
CRC32 hash : C831204B
CRC32 hash (skip zero) : F8A0EBCD
AccurateRip v1 signature : 0E7C4D22
AccurateRip v2 signature : D38D4948
->Accurately ripped (v1+v2, confidence 2+2/6)
Statistics
Read error : 0
Skipped (treated as error) : 0
Edge jitter error (maybe fixed) : 0
Atom jitter error (maybe fixed) : 0
Drift error (maybe fixed) : 0
Dropped bytes error (maybe fixed) : 0
Duplicated bytes error (maybe fixed) : 0
Inconsistency in error sectors : 0
Track 06
Pre-gap length : 00:02:45
CRC32 hash (test run) : 1317911F
CRC32 hash : 1317911F
CRC32 hash (skip zero) : 68F42AA6
AccurateRip v1 signature : 6BB3EDF7
AccurateRip v2 signature : 09BA92D2
->Accurately ripped (v1+v2, confidence 2+2/6)
Statistics
Read error : 0
Skipped (treated as error) : 0
Edge jitter error (maybe fixed) : 0
Atom jitter error (maybe fixed) : 0
Drift error (maybe fixed) : 0
Dropped bytes error (maybe fixed) : 0
Duplicated bytes error (maybe fixed) : 0
Inconsistency in error sectors : 0
Track 07
Pre-gap length : 00:04:32
CRC32 hash (test run) : B6C75E06
CRC32 hash : B6C75E06
CRC32 hash (skip zero) : 051D79EE
AccurateRip v1 signature : A745D94A
AccurateRip v2 signature : 1A025398
->Accurately ripped (v1+v2, confidence 2+2/6)
Statistics
Read error : 0
Skipped (treated as error) : 0
Edge jitter error (maybe fixed) : 0
Atom jitter error (maybe fixed) : 0
Drift error (maybe fixed) : 0
Dropped bytes error (maybe fixed) : 0
Duplicated bytes error (maybe fixed) : 0
Inconsistency in error sectors : 0
Track 08
Pre-gap length : 00:04:40
CRC32 hash (test run) : 33D4F443
CRC32 hash : 33D4F443
CRC32 hash (skip zero) : 4C221F29
AccurateRip v1 signature : E905B213
AccurateRip v2 signature : 8B2A882E
->Accurately ripped (v1+v2, confidence 2+2/6)
Statistics
Read error : 0
Skipped (treated as error) : 0
Edge jitter error (maybe fixed) : 0
Atom jitter error (maybe fixed) : 0
Drift error (maybe fixed) : 0
Dropped bytes error (maybe fixed) : 0
Duplicated bytes error (maybe fixed) : 0
Inconsistency in error sectors : 0
Track 09
Pre-gap length : 00:04:05
CRC32 hash (test run) : 6E0DCC45
CRC32 hash : 6E0DCC45
CRC32 hash (skip zero) : 26DE9761
AccurateRip v1 signature : D2679345
AccurateRip v2 signature : D82CA284
->Accurately ripped (v1+v2, confidence 2+2/6)
Statistics
Read error : 0
Skipped (treated as error) : 0
Edge jitter error (maybe fixed) : 0
Atom jitter error (maybe fixed) : 0
Drift error (maybe fixed) : 0
Dropped bytes error (maybe fixed) : 0
Duplicated bytes error (maybe fixed) : 0
Inconsistency in error sectors : 0
Track 10
Pre-gap length : 00:04:58
CRC32 hash (test run) : 9BBB004C
CRC32 hash : 9BBB004C
CRC32 hash (skip zero) : 9291FA82
AccurateRip v1 signature : 288D1F02
AccurateRip v2 signature : E4E87981
->Accurately ripped (v1+v2, confidence 2+2/6)
Statistics
Read error : 0
Skipped (treated as error) : 0
Edge jitter error (maybe fixed) : 0
Atom jitter error (maybe fixed) : 0
Drift error (maybe fixed) : 0
Dropped bytes error (maybe fixed) : 0
Duplicated bytes error (maybe fixed) : 0
Inconsistency in error sectors : 0
Track 11
Pre-gap length : 00:04:45
CRC32 hash (test run) : A7DE3207
CRC32 hash : A7DE3207
CRC32 hash (skip zero) : 66DF189D
AccurateRip v1 signature : 6E6292FF
AccurateRip v2 signature : 83349B87
->Accurately ripped (v1+v2, confidence 2+2/6)
Statistics
Read error : 0
Skipped (treated as error) : 0
Edge jitter error (maybe fixed) : 0
Atom jitter error (maybe fixed) : 0
Drift error (maybe fixed) : 0
Dropped bytes error (maybe fixed) : 0
Duplicated bytes error (maybe fixed) : 0
Inconsistency in error sectors : 0
Track 12
Pre-gap length : 00:04:02
CRC32 hash (test run) : 04746331
CRC32 hash : 04746331
CRC32 hash (skip zero) : B357FE24
AccurateRip v1 signature : D3B8CC75
AccurateRip v2 signature : 982DFA96
->Accurately ripped (v1+v2, confidence 2+2/6)
Statistics
Read error : 0
Skipped (treated as error) : 0
Edge jitter error (maybe fixed) : 0
Atom jitter error (maybe fixed) : 0
Drift error (maybe fixed) : 0
Dropped bytes error (maybe fixed) : 0
Duplicated bytes error (maybe fixed) : 0
Inconsistency in error sectors : 0
Track 13
Pre-gap length : 00:04:48
CRC32 hash (test run) : A99D1E48
CRC32 hash : A99D1E48
CRC32 hash (skip zero) : 4068B95E
AccurateRip v1 signature : 0BE2602C
AccurateRip v2 signature : 158CC893
->Accurately ripped (v1+v2, confidence 2+2/6)
Statistics
Read error : 0
Skipped (treated as error) : 0
Edge jitter error (maybe fixed) : 0
Atom jitter error (maybe fixed) : 0
Drift error (maybe fixed) : 0
Dropped bytes error (maybe fixed) : 0
Duplicated bytes error (maybe fixed) : 0
Inconsistency in error sectors : 0
Track 14
Pre-gap length : 00:04:63
CRC32 hash (test run) : 47F516B2
CRC32 hash : 47F516B2
CRC32 hash (skip zero) : 7AB24592
AccurateRip v1 signature : 7CB54EF8
AccurateRip v2 signature : 62A3E3D6
->Accurately ripped (v1+v2, confidence 2+2/6)
Statistics
Read error : 0
Skipped (treated as error) : 0
Edge jitter error (maybe fixed) : 0
Atom jitter error (maybe fixed) : 0
Drift error (maybe fixed) : 0
Dropped bytes error (maybe fixed) : 0
Duplicated bytes error (maybe fixed) : 0
Inconsistency in error sectors : 0
Track 15
Pre-gap length : 00:04:27
CRC32 hash (test run) : DA3A7979
CRC32 hash : DA3A7979
CRC32 hash (skip zero) : 5DA3B026
AccurateRip v1 signature : DCE2004B
AccurateRip v2 signature : A8A64F6E
->Accurately ripped (v1+v2, confidence 2+2/6)
Statistics
Read error : 0
Skipped (treated as error) : 0
Edge jitter error (maybe fixed) : 0
Atom jitter error (maybe fixed) : 0
Drift error (maybe fixed) : 0
Dropped bytes error (maybe fixed) : 0
Duplicated bytes error (maybe fixed) : 0
Inconsistency in error sectors : 0
Track 16
Pre-gap length : 00:04:30
CRC32 hash (test run) : B00DDB3F
CRC32 hash : B00DDB3F
CRC32 hash (skip zero) : 18CE4082
AccurateRip v1 signature : 63842DDC
AccurateRip v2 signature : 19271C95
->Accurately ripped (v1+v2, confidence 2+2/6)
Statistics
Read error : 0
Skipped (treated as error) : 0
Edge jitter error (maybe fixed) : 0
Atom jitter error (maybe fixed) : 0
Drift error (maybe fixed) : 0
Dropped bytes error (maybe fixed) : 0
Duplicated bytes error (maybe fixed) : 0
Inconsistency in error sectors : 0
Track 17
Pre-gap length : 00:04:25
CRC32 hash (test run) : F65C365C
CRC32 hash : F65C365C
CRC32 hash (skip zero) : EAAC7CBD
AccurateRip v1 signature : E16AEAD4
AccurateRip v2 signature : F956D7F2
->Accurately ripped (v1+v2, confidence 2+2/6)
Statistics
Read error : 0
Skipped (treated as error) : 0
Edge jitter error (maybe fixed) : 0
Atom jitter error (maybe fixed) : 0
Drift error (maybe fixed) : 0
Dropped bytes error (maybe fixed) : 0
Duplicated bytes error (maybe fixed) : 0
Inconsistency in error sectors : 0
Track 18
Pre-gap length : 00:04:10
CRC32 hash (test run) : 9954936E
CRC32 hash : 9954936E
CRC32 hash (skip zero) : 84EA69CD
AccurateRip v1 signature : 62F0FF4A
AccurateRip v2 signature : E9013788
->Accurately ripped (v1+v2, confidence 2+2/6)
Statistics
Read error : 0
Skipped (treated as error) : 0
Edge jitter error (maybe fixed) : 0
Atom jitter error (maybe fixed) : 0
Drift error (maybe fixed) : 0
Dropped bytes error (maybe fixed) : 0
Duplicated bytes error (maybe fixed) : 0
Inconsistency in error sectors : 0
Track 19
Pre-gap length : 00:04:53
CRC32 hash (test run) : 6F88953A
CRC32 hash : 6F88953A
CRC32 hash (skip zero) : B36ED479
AccurateRip v1 signature : 79AF33FA
AccurateRip v2 signature : 59DDBC5B
->Accurately ripped (v1+v2, confidence 2+2/6)
Statistics
Read error : 0
Skipped (treated as error) : 0
Edge jitter error (maybe fixed) : 0
Atom jitter error (maybe fixed) : 0
Drift error (maybe fixed) : 0
Dropped bytes error (maybe fixed) : 0
Duplicated bytes error (maybe fixed) : 0
Inconsistency in error sectors : 0
Track 20
Pre-gap length : 00:04:10
CRC32 hash (test run) : 9C9F7D03
CRC32 hash : 9C9F7D03
CRC32 hash (skip zero) : C02019AC
AccurateRip v1 signature : 6A411C8C
AccurateRip v2 signature : 8BAD5993
->Accurately ripped (v1+v2, confidence 2+2/6)
Statistics
Read error : 0
Skipped (treated as error) : 0
Edge jitter error (maybe fixed) : 0
Atom jitter error (maybe fixed) : 0
Drift error (maybe fixed) : 0
Dropped bytes error (maybe fixed) : 0
Duplicated bytes error (maybe fixed) : 0
Inconsistency in error sectors : 0
No errors occurred
End of status report

CD2

X Lossless Decoder version 20141129 (148.1)
XLD extraction logfile from 2015-01-20 02:25:04 +0300
Различные исполнители / The Very Best Of Beniamino Gigli [Disc 2]
Used drive : TSSTcorp CDDVDW SE-S084C (revision TS01)
Media type : Pressed CD
Ripper mode : CDParanoia III 10.2
Disable audio cache : OK for the drive with a cache less than 2750KiB
Make use of C2 pointers : NO
Read offset correction : 6
Max retry count : 20
Gap status : Analyzed, Appended
TOC of the extracted CD
Track | Start | Length | Start sector | End sector
---------------------------------------------------------
1 | 00:00:00 | 03:04:50 | 0 | 13849
2 | 03:04:50 | 03:37:15 | 13850 | 30139
3 | 06:41:65 | 03:04:62 | 30140 | 44001
4 | 09:46:52 | 04:04:53 | 44002 | 62354
5 | 13:51:30 | 02:15:10 | 62355 | 72489
6 | 16:06:40 | 03:18:25 | 72490 | 87364
7 | 19:24:65 | 04:29:72 | 87365 | 107611
8 | 23:54:62 | 06:29:18 | 107612 | 136804
9 | 30:24:05 | 04:34:42 | 136805 | 157396
10 | 34:58:47 | 04:27:40 | 157397 | 177461
11 | 39:26:12 | 03:10:45 | 177462 | 191756
12 | 42:36:57 | 03:04:10 | 191757 | 205566
13 | 45:40:67 | 03:12:50 | 205567 | 220016
14 | 48:53:42 | 04:38:28 | 220017 | 240894
15 | 53:31:70 | 04:50:40 | 240895 | 262684
16 | 58:22:35 | 03:27:45 | 262685 | 278254
17 | 61:50:05 | 04:46:37 | 278255 | 299741
18 | 66:36:42 | 03:07:73 | 299742 | 313839
19 | 69:44:40 | 03:06:52 | 313840 | 327841
20 | 72:51:17 | 03:33:40 | 327842 | 343856
List of alternate offset correction values
# | Absolute | Relative | Confidence
------------------------------------------
1 | -658 | -664 | 2
AccurateRip Summary (DiscID: 003688af-0328d336-2f11e814)
Track 01 : OK (v1+v2, confidence 4/6)
Track 02 : OK (v1+v2, confidence 4/6)
Track 03 : OK (v1+v2, confidence 4/6)
Track 04 : OK (v1+v2, confidence 4/6)
Track 05 : OK (v1+v2, confidence 4/6)
Track 06 : OK (v1+v2, confidence 4/6)
Track 07 : OK (v1+v2, confidence 4/6)
Track 08 : OK (v1+v2, confidence 4/6)
Track 09 : OK (v1+v2, confidence 4/6)
Track 10 : OK (v1, confidence 2/4)
Track 11 : OK (v1+v2, confidence 4/6)
Track 12 : OK (v1+v2, confidence 4/6)
Track 13 : OK (v1+v2, confidence 4/6)
Track 14 : OK (v1+v2, confidence 4/6)
Track 15 : OK (v1+v2, confidence 4/6)
Track 16 : OK (v1+v2, confidence 4/6)
Track 17 : OK (v1+v2, confidence 4/6)
Track 18 : OK (v1+v2, confidence 4/6)
Track 19 : OK (v1+v2, confidence 4/6)
Track 20 : OK (v1+v2, confidence 4/6)
->All tracks accurately ripped.
All Tracks
Filename : /Users/alcofribasnasier/Music/Export/The Very Best Of Beniamino Gigli [Disc 2].flac
CRC32 hash (test run) : A4232CA5
CRC32 hash : 43FA53A9
->Rip may not be accurate.
CRC32 hash (skip zero) : C19F6B94
Statistics
Read error : 0
Skipped (treated as error) : 0
Edge jitter error (maybe fixed) : 1
Atom jitter error (maybe fixed) : 0
Drift error (maybe fixed) : 0
Dropped bytes error (maybe fixed) : 0
Duplicated bytes error (maybe fixed) : 1
Inconsistency in error sectors : 0
Track 01
Pre-gap length : 00:02:00
CRC32 hash (test run) : 8B861B81
CRC32 hash : 8B861B81
CRC32 hash (skip zero) : 43E02503
AccurateRip v1 signature : 9C074F34
AccurateRip v2 signature : 3399890C
->Accurately ripped (v1+v2, confidence 2+2/6)
Statistics
Read error : 0
Skipped (treated as error) : 0
Edge jitter error (maybe fixed) : 0
Atom jitter error (maybe fixed) : 0
Drift error (maybe fixed) : 0
Dropped bytes error (maybe fixed) : 0
Duplicated bytes error (maybe fixed) : 0
Inconsistency in error sectors : 0
Track 02
Pre-gap length : 00:04:15
CRC32 hash (test run) : EB279867
CRC32 hash : EB279867
CRC32 hash (skip zero) : 1E17ADEC
AccurateRip v1 signature : 89362DEF
AccurateRip v2 signature : 18E5B16A
->Accurately ripped (v1+v2, confidence 2+2/6)
Statistics
Read error : 0
Skipped (treated as error) : 0
Edge jitter error (maybe fixed) : 0
Atom jitter error (maybe fixed) : 0
Drift error (maybe fixed) : 0
Dropped bytes error (maybe fixed) : 0
Duplicated bytes error (maybe fixed) : 0
Inconsistency in error sectors : 0
Track 03
Pre-gap length : 00:04:13
CRC32 hash (test run) : 0FEB3E20
CRC32 hash : 0FEB3E20
CRC32 hash (skip zero) : 18940417
AccurateRip v1 signature : 61D70075
AccurateRip v2 signature : D3805AAE
->Accurately ripped (v1+v2, confidence 2+2/6)
Statistics
Read error : 0
Skipped (treated as error) : 0
Edge jitter error (maybe fixed) : 0
Atom jitter error (maybe fixed) : 0
Drift error (maybe fixed) : 0
Dropped bytes error (maybe fixed) : 0
Duplicated bytes error (maybe fixed) : 0
Inconsistency in error sectors : 0
Track 04
Pre-gap length : 00:04:32
CRC32 hash (test run) : 9FFC5C11
CRC32 hash : 9FFC5C11
CRC32 hash (skip zero) : 294907AA
AccurateRip v1 signature : F2787FF2
AccurateRip v2 signature : A20CD899
->Accurately ripped (v1+v2, confidence 2+2/6)
Statistics
Read error : 0
Skipped (treated as error) : 0
Edge jitter error (maybe fixed) : 0
Atom jitter error (maybe fixed) : 0
Drift error (maybe fixed) : 0
Dropped bytes error (maybe fixed) : 0
Duplicated bytes error (maybe fixed) : 0
Inconsistency in error sectors : 0
Track 05
Pre-gap length : 00:04:10
CRC32 hash (test run) : 19F0B6C1
CRC32 hash : 19F0B6C1
CRC32 hash (skip zero) : DA1D6333
AccurateRip v1 signature : 53A40890
AccurateRip v2 signature : EE2029E5
->Accurately ripped (v1+v2, confidence 2+2/6)
Statistics
Read error : 0
Skipped (treated as error) : 0
Edge jitter error (maybe fixed) : 0
Atom jitter error (maybe fixed) : 0
Drift error (maybe fixed) : 0
Dropped bytes error (maybe fixed) : 0
Duplicated bytes error (maybe fixed) : 0
Inconsistency in error sectors : 0
Track 06
Pre-gap length : 00:04:25
CRC32 hash (test run) : D5EBAD6B
CRC32 hash : D5EBAD6B
CRC32 hash (skip zero) : 99926CA0
AccurateRip v1 signature : 45C5BF3F
AccurateRip v2 signature : BB82B98D
->Accurately ripped (v1+v2, confidence 2+2/6)
Statistics
Read error : 0
Skipped (treated as error) : 0
Edge jitter error (maybe fixed) : 0
Atom jitter error (maybe fixed) : 0
Drift error (maybe fixed) : 0
Dropped bytes error (maybe fixed) : 0
Duplicated bytes error (maybe fixed) : 0
Inconsistency in error sectors : 0
Track 07
Pre-gap length : 00:04:23
CRC32 hash (test run) : C0885557
CRC32 hash : C0885557
CRC32 hash (skip zero) : 8A4C56AE
AccurateRip v1 signature : 1B5D7E6E
AccurateRip v2 signature : FD662623
->Accurately ripped (v1+v2, confidence 2+2/6)
Statistics
Read error : 0
Skipped (treated as error) : 0
Edge jitter error (maybe fixed) : 0
Atom jitter error (maybe fixed) : 0
Drift error (maybe fixed) : 0
Dropped bytes error (maybe fixed) : 0
Duplicated bytes error (maybe fixed) : 0
Inconsistency in error sectors : 0
Track 08
Pre-gap length : 00:04:57
CRC32 hash (test run) : A668D76E
CRC32 hash : A668D76E
CRC32 hash (skip zero) : 709EEF60
AccurateRip v1 signature : D71EFEC8
AccurateRip v2 signature : F0FF8064
->Accurately ripped (v1+v2, confidence 2+2/6)
Statistics
Read error : 0
Skipped (treated as error) : 0
Edge jitter error (maybe fixed) : 0
Atom jitter error (maybe fixed) : 0
Drift error (maybe fixed) : 0
Dropped bytes error (maybe fixed) : 0
Duplicated bytes error (maybe fixed) : 0
Inconsistency in error sectors : 0
Track 09
Pre-gap length : 00:04:48
CRC32 hash (test run) : D358F708
CRC32 hash : ABBE0D10
->Rip may not be accurate.
CRC32 hash (skip zero) : 3BEA7E8C
AccurateRip v1 signature : 19B97FAE
AccurateRip v2 signature : 31B6ACE7
->Accurately ripped (v1+v2, confidence 2+2/6)
Statistics
Read error : 0
Skipped (treated as error) : 0
Edge jitter error (maybe fixed) : 1
Atom jitter error (maybe fixed) : 0
Drift error (maybe fixed) : 0
Dropped bytes error (maybe fixed) : 0
Duplicated bytes error (maybe fixed) : 1
Inconsistency in error sectors : 0
Track 10
Pre-gap length : 00:04:17
CRC32 hash (test run) : EEA0AECD
CRC32 hash : EEA0AECD
CRC32 hash (skip zero) : 3D701461
AccurateRip v1 signature : 71A7298F
AccurateRip v2 signature : 041AD890
->Accurately ripped (v1, confidence 2/4)
Statistics
Read error : 0
Skipped (treated as error) : 0
Edge jitter error (maybe fixed) : 0
Atom jitter error (maybe fixed) : 0
Drift error (maybe fixed) : 0
Dropped bytes error (maybe fixed) : 0
Duplicated bytes error (maybe fixed) : 0
Inconsistency in error sectors : 0
Track 11
Pre-gap length : 00:04:45
CRC32 hash (test run) : 6CC28F9C
CRC32 hash : 6CC28F9C
CRC32 hash (skip zero) : 6831F4DB
AccurateRip v1 signature : 80A6B189
AccurateRip v2 signature : 48BE834D
->Accurately ripped (v1+v2, confidence 2+2/6)
Statistics
Read error : 0
Skipped (treated as error) : 0
Edge jitter error (maybe fixed) : 0
Atom jitter error (maybe fixed) : 0
Drift error (maybe fixed) : 0
Dropped bytes error (maybe fixed) : 0
Duplicated bytes error (maybe fixed) : 0
Inconsistency in error sectors : 0
Track 12
Pre-gap length : 00:04:05
CRC32 hash (test run) : 09828185
CRC32 hash : 09828185
CRC32 hash (skip zero) : E1364313
AccurateRip v1 signature : 3B533E00
AccurateRip v2 signature : B7CA0346
->Accurately ripped (v1+v2, confidence 2+2/6)
Statistics
Read error : 0
Skipped (treated as error) : 0
Edge jitter error (maybe fixed) : 0
Atom jitter error (maybe fixed) : 0
Drift error (maybe fixed) : 0
Dropped bytes error (maybe fixed) : 0
Duplicated bytes error (maybe fixed) : 0
Inconsistency in error sectors : 0
Track 13
Pre-gap length : 00:04:05
CRC32 hash (test run) : 18094EDE
CRC32 hash : 18094EDE
CRC32 hash (skip zero) : 794C8D5B
AccurateRip v1 signature : BFB9CB26
AccurateRip v2 signature : 6FC9827E
->Accurately ripped (v1+v2, confidence 2+2/6)
Statistics
Read error : 0
Skipped (treated as error) : 0
Edge jitter error (maybe fixed) : 0
Atom jitter error (maybe fixed) : 0
Drift error (maybe fixed) : 0
Dropped bytes error (maybe fixed) : 0
Duplicated bytes error (maybe fixed) : 0
Inconsistency in error sectors : 0
Track 14
Pre-gap length : 00:04:22
CRC32 hash (test run) : A6BD5A61
CRC32 hash : A6BD5A61
CRC32 hash (skip zero) : C4652A17
AccurateRip v1 signature : 3E6C11FA
AccurateRip v2 signature : F031E055
->Accurately ripped (v1+v2, confidence 2+2/6)
Statistics
Read error : 0
Skipped (treated as error) : 0
Edge jitter error (maybe fixed) : 0
Atom jitter error (maybe fixed) : 0
Drift error (maybe fixed) : 0
Dropped bytes error (maybe fixed) : 0
Duplicated bytes error (maybe fixed) : 0
Inconsistency in error sectors : 0
Track 15
Pre-gap length : 00:04:40
CRC32 hash (test run) : 0BC44FCD
CRC32 hash : 0BC44FCD
CRC32 hash (skip zero) : 25E583DD
AccurateRip v1 signature : E4CAAD38
AccurateRip v2 signature : 0D8D047C
->Accurately ripped (v1+v2, confidence 2+2/6)
Statistics
Read error : 0
Skipped (treated as error) : 0
Edge jitter error (maybe fixed) : 0
Atom jitter error (maybe fixed) : 0
Drift error (maybe fixed) : 0
Dropped bytes error (maybe fixed) : 0
Duplicated bytes error (maybe fixed) : 0
Inconsistency in error sectors : 0
Track 16
Pre-gap length : 00:04:38
CRC32 hash (test run) : E612B1B7
CRC32 hash : E612B1B7
CRC32 hash (skip zero) : 5B0343BB
AccurateRip v1 signature : 2BCD3CF3
AccurateRip v2 signature : F4F7F24C
->Accurately ripped (v1+v2, confidence 2+2/6)
Statistics
Read error : 0
Skipped (treated as error) : 0
Edge jitter error (maybe fixed) : 0
Atom jitter error (maybe fixed) : 0
Drift error (maybe fixed) : 0
Dropped bytes error (maybe fixed) : 0
Duplicated bytes error (maybe fixed) : 0
Inconsistency in error sectors : 0
Track 17
Pre-gap length : 00:04:58
CRC32 hash (test run) : AB84F706
CRC32 hash : AB84F706
CRC32 hash (skip zero) : 2CD50C69
AccurateRip v1 signature : 6B72D530
AccurateRip v2 signature : 22E77673
->Accurately ripped (v1+v2, confidence 2+2/6)
Statistics
Read error : 0
Skipped (treated as error) : 0
Edge jitter error (maybe fixed) : 0
Atom jitter error (maybe fixed) : 0
Drift error (maybe fixed) : 0
Dropped bytes error (maybe fixed) : 0
Duplicated bytes error (maybe fixed) : 0
Inconsistency in error sectors : 0
Track 18
Pre-gap length : 00:04:55
CRC32 hash (test run) : 5447EDDC
CRC32 hash : 5447EDDC
CRC32 hash (skip zero) : A9C0B4A4
AccurateRip v1 signature : 1F5713BF
AccurateRip v2 signature : 38CC6955
->Accurately ripped (v1+v2, confidence 2+2/6)
Statistics
Read error : 0
Skipped (treated as error) : 0
Edge jitter error (maybe fixed) : 0
Atom jitter error (maybe fixed) : 0
Drift error (maybe fixed) : 0
Dropped bytes error (maybe fixed) : 0
Duplicated bytes error (maybe fixed) : 0
Inconsistency in error sectors : 0
Track 19
Pre-gap length : 00:04:00
CRC32 hash (test run) : 8771E4B1
CRC32 hash : 8771E4B1
CRC32 hash (skip zero) : 4CFA0D83
AccurateRip v1 signature : 9F10005C
AccurateRip v2 signature : 55C25DDC
->Accurately ripped (v1+v2, confidence 2+2/6)
Statistics
Read error : 0
Skipped (treated as error) : 0
Edge jitter error (maybe fixed) : 0
Atom jitter error (maybe fixed) : 0
Drift error (maybe fixed) : 0
Dropped bytes error (maybe fixed) : 0
Duplicated bytes error (maybe fixed) : 0
Inconsistency in error sectors : 0
Track 20
Pre-gap length : 00:04:07
CRC32 hash (test run) : 0801E6FD
CRC32 hash : 0801E6FD
CRC32 hash (skip zero) : EEB0E6E1
AccurateRip v1 signature : E748EA3D
AccurateRip v2 signature : D840BA25
->Accurately ripped (v1+v2, confidence 2+2/6)
Statistics
Read error : 0
Skipped (treated as error) : 0
Edge jitter error (maybe fixed) : 0
Atom jitter error (maybe fixed) : 0
Drift error (maybe fixed) : 0
Dropped bytes error (maybe fixed) : 0
Duplicated bytes error (maybe fixed) : 0
Inconsistency in error sectors : 0
Some inconsistencies found
End of status report

Скриншот спектра частот




Показать сообщения:    

Текущее время: 10-Дек 11:58

Часовой пояс: UTC + 3


Вы не можете начинать темы
Вы не можете отвечать на сообщения
Вы не можете редактировать свои сообщения
Вы не можете удалять свои сообщения
Вы не можете голосовать в опросах
Вы не можете прикреплять файлы к сообщениям
Вы не можете скачивать файлы