(Classical) Renee Fleming - Guilty Pleasures (Berlioz, Duparc, Refice, de Falla, Чайковский/Tchaikovsky, Рахманинов/Rachmanino, Delibes, Canteloube, Dvorak, Smetana, J. Strauss II, Wagner, Corigliano; Lang-Lessing) - 2013, FLAC (tracks+.cue) lossless


 

[Цитировать]

Renee Fleming - Guilty Pleasures (Berlioz, Duparc, Refice, de Falla, Чайковский, Рахманинов, Delibes, Canteloube, Dvorak, Smetana, J. Strauss II, Wagner, Corigliano; Lang-Lessing)
Жанр: Classical
Год издания диска: 2013
Издатель (лейбл): Decca
Номер по каталогу:
Аудиокодек: FLAC
Тип рипа: tracks+.cue
Битрейт аудио: lossless
Продолжительность: 01:02:38
Источник: скачано из сети
Наличие сканов в содержимом раздачи: да
Исполнители:
Renée Fleming - Soprano
Susan Graham - Mezzo-Soprano (track #9)
Janet Simpson - Piano
Philharmonia Orchestra
Sebastian Lang-Lessing - Conductor

Треклист:

Hector Berlioz
1. Les nuits d'été, Op.7 - 1. Villanelle 2:11
Henri Duparc
2. Phidylé 6:03
Licinio Refice
3. Ombra di nube 3:31
Manuel de Falla
Siete canciones populares españolas
4. No.5. Nana 1:41
5. No.6. Canción 1:09
Пётр Ильич Чайковский / Tchaikovsky
6. Undina - Undina's Aria 3:58
Сергей Рахманинов / Rachmaninov
7. Sumerki (Twilight), Op.21, No.3 2:18
Léo Delibes
8. Les Filles de Cadix 3:28
9. Lakmé / Act 1 - "Sous le dôme épais" (Flower Duet) 3:50
Joseph Canteloube
Chants d'Auvergne
10. No. 7. La Delaissado 5:31
11. No. 13. Malurous qu'o uno Fenno 1:31
Antonin Dvořák
12. Armida - "Za ?tíhlou Gazelou" 4:44
Bedrich Smetana
13. The Kiss (Hubicka) - Opera in 2 Acts - Lullaby 4:09
Johann Strauss II
14. Walzer aus Wien - "Frag mich oft" 3:27
Richard Wagner
15. Wesendonck Lieder - 5. Träume "Sag', welch wunderbare Träume" 4:33
John Corigliano
16. Corigliano: The Ghosts of Versailles / Act II - "Once There Was A Golden Bird" 5:42
17. Traditional: "O Danny Boy" 4:45

LOG EAC CD:

Exact Audio Copy V1.0 beta 3 from 29. August 2011
EAC extraction logfile from 6. October 2013, 22:26
Renée Fleming; Philharmonia Orchestra; Sebastian Lang-Lessing / Guilty Pleasures
Used drive : hp DVD RW AD-7251H5 Adapter: 0 ID: 2
Read mode : Secure
Utilize accurate stream : Yes
Defeat audio cache : Yes
Make use of C2 pointers : No
Read offset correction : 48
Overread into Lead-In and Lead-Out : No
Fill up missing offset samples with silence : Yes
Delete leading and trailing silent blocks : No
Null samples used in CRC calculations : Yes
Used interface : Native Win32 interface for Win NT & 2000
Gap handling : Appended to previous track
Used output format : User Defined Encoder
Selected bitrate : 128 kBit/s
Quality : High
Add ID3 tag : No
Command line compressor : C:\Program Files (x86)\Exact Audio Copy\Flac\flac.exe
Additional command line options : -8 -V -T "ARTIST=%artist%" -T "TITLE=%title%" -T "ALBUM=%albumtitle%" -T "DATE=%year%" -T "TRACKNUMBER=%tracknr%" -T "GENRE=%genre%" -T "PERFORMER=%albuminterpret%" -T "COMPOSER=%composer%" %haslyrics%--tag-from-file=LYRICS="%lyricsfile%"%haslyrics% -T "ALBUMARTIST=%albumartist%" -T "DISCNUMBER=%cdnumber%" -T "TOTALDISCS=%totalcds%" -T "TOTALTRACKS=%numtracks%" -T "COMMENT=%comment%" %source% -o %dest%
TOC of the extracted CD
Track | Start | Length | Start sector | End sector
---------------------------------------------------------
1 | 0:00.00 | 2:11.58 | 0 | 9882
2 | 2:11.58 | 6:03.05 | 9883 | 37112
3 | 8:14.63 | 3:31.01 | 37113 | 52938
4 | 11:45.64 | 1:41.07 | 52939 | 60520
5 | 13:26.71 | 1:09.59 | 60521 | 65754
6 | 14:36.55 | 3:58.05 | 65755 | 83609
7 | 18:34.60 | 2:18.34 | 83610 | 93993
8 | 20:53.19 | 3:28.23 | 93994 | 109616
9 | 24:21.42 | 3:50.38 | 109617 | 126904
10 | 28:12.05 | 5:31.28 | 126905 | 151757
11 | 33:43.33 | 1:31.62 | 151758 | 158644
12 | 35:15.20 | 4:44.71 | 158645 | 180015
13 | 40:00.16 | 4:08.74 | 180016 | 198689
14 | 44:09.15 | 3:27.68 | 198690 | 214282
15 | 47:37.08 | 4:33.23 | 214283 | 234780
16 | 52:10.31 | 5:42.06 | 234781 | 260436
17 | 57:52.37 | 4:45.23 | 260437 | 281834
Track 1
Filename M:\EAC\Renée Fleming; Philharmonia Orchestra; Sebastian Lang-Lessing - 2013 - Guilty Pleasures\01 - Villanelle.wav
Pre-gap length 0:00:02.00
Peak level 58.6 %
Extraction speed 1.8 X
Track quality 99.9 %
Test CRC CF85AF03
Copy CRC CF85AF03
Track not present in AccurateRip database
Copy OK
Track 2
Filename M:\EAC\Renée Fleming; Philharmonia Orchestra; Sebastian Lang-Lessing - 2013 - Guilty Pleasures\02 - Phidylé.wav
Peak level 98.7 %
Extraction speed 4.1 X
Track quality 100.0 %
Test CRC 478EC4B5
Copy CRC 478EC4B5
Track not present in AccurateRip database
Copy OK
Track 3
Filename M:\EAC\Renée Fleming; Philharmonia Orchestra; Sebastian Lang-Lessing - 2013 - Guilty Pleasures\03 - Ombra di nube.wav
Peak level 74.5 %
Extraction speed 4.3 X
Track quality 100.0 %
Test CRC 4D8F576B
Copy CRC 4D8F576B
Track not present in AccurateRip database
Copy OK
Track 4
Filename M:\EAC\Renée Fleming; Philharmonia Orchestra; Sebastian Lang-Lessing - 2013 - Guilty Pleasures\04 - Nana.wav
Peak level 56.3 %
Extraction speed 3.9 X
Track quality 100.0 %
Test CRC 57C96009
Copy CRC 57C96009
Track not present in AccurateRip database
Copy OK
Track 5
Filename M:\EAC\Renée Fleming; Philharmonia Orchestra; Sebastian Lang-Lessing - 2013 - Guilty Pleasures\05 - Canción.wav
Peak level 45.0 %
Extraction speed 3.6 X
Track quality 100.0 %
Test CRC DA7A0584
Copy CRC DA7A0584
Track not present in AccurateRip database
Copy OK
Track 6
Filename M:\EAC\Renée Fleming; Philharmonia Orchestra; Sebastian Lang-Lessing - 2013 - Guilty Pleasures\06 - Undina's Aria.wav
Peak level 73.6 %
Extraction speed 3.4 X
Track quality 99.9 %
Test CRC C2095D00
Copy CRC C2095D00
Track not present in AccurateRip database
Copy OK
Track 7
Filename M:\EAC\Renée Fleming; Philharmonia Orchestra; Sebastian Lang-Lessing - 2013 - Guilty Pleasures\07 - Sumerki, op.21 no.3.wav
Peak level 55.2 %
Extraction speed 2.7 X
Track quality 99.9 %
Test CRC 9B4FA6E2
Copy CRC 9B4FA6E2
Track not present in AccurateRip database
Copy OK
Track 8
Filename M:\EAC\Renée Fleming; Philharmonia Orchestra; Sebastian Lang-Lessing - 2013 - Guilty Pleasures\08 - Les Filles de Cadix.wav
Peak level 98.1 %
Extraction speed 5.3 X
Track quality 100.0 %
Test CRC 2841B9E7
Copy CRC 2841B9E7
Track not present in AccurateRip database
Copy OK
Track 9
Filename M:\EAC\Renée Fleming; Philharmonia Orchestra; Sebastian Lang-Lessing - 2013 - Guilty Pleasures\09 - Dôme épais (Flower Duet, Lakmé) with Susan Graham.wav
Peak level 88.9 %
Extraction speed 5.7 X
Track quality 100.0 %
Test CRC E3A0A131
Copy CRC E3A0A131
Track not present in AccurateRip database
Copy OK
Track 10
Filename M:\EAC\Renée Fleming; Philharmonia Orchestra; Sebastian Lang-Lessing - 2013 - Guilty Pleasures\10 - La Delaïssádo.wav
Peak level 49.8 %
Extraction speed 6.1 X
Track quality 100.0 %
Test CRC 7A2632F2
Copy CRC 7A2632F2
Track not present in AccurateRip database
Copy OK
Track 11
Filename M:\EAC\Renée Fleming; Philharmonia Orchestra; Sebastian Lang-Lessing - 2013 - Guilty Pleasures\11 - Malurous qu'o uno fenno.wav
Peak level 91.9 %
Extraction speed 5.0 X
Track quality 100.0 %
Test CRC 2CA43C65
Copy CRC 2CA43C65
Track not present in AccurateRip database
Copy OK
Track 12
Filename M:\EAC\Renée Fleming; Philharmonia Orchestra; Sebastian Lang-Lessing - 2013 - Guilty Pleasures\12 - Za štíhlou gazelou.wav
Peak level 98.8 %
Extraction speed 6.5 X
Track quality 100.0 %
Test CRC 68814A97
Copy CRC 68814A97
Track not present in AccurateRip database
Copy OK
Track 13
Filename M:\EAC\Renée Fleming; Philharmonia Orchestra; Sebastian Lang-Lessing - 2013 - Guilty Pleasures\13 - Vendulka's Lullaby.wav
Peak level 55.5 %
Extraction speed 3.7 X
Track quality 99.9 %
Test CRC CB3F397E
Copy CRC CB3F397E
Track not present in AccurateRip database
Copy OK
Track 14
Filename M:\EAC\Renée Fleming; Philharmonia Orchestra; Sebastian Lang-Lessing - 2013 - Guilty Pleasures\14 - Frag' mich oft, woran's denn wohl liegt.wav
Peak level 94.5 %
Extraction speed 6.7 X
Track quality 100.0 %
Test CRC 6F9265FC
Copy CRC 6F9265FC
Track not present in AccurateRip database
Copy OK
Track 15
Filename M:\EAC\Renée Fleming; Philharmonia Orchestra; Sebastian Lang-Lessing - 2013 - Guilty Pleasures\15 - Träume.wav
Peak level 82.1 %
Extraction speed 7.1 X
Track quality 100.0 %
Test CRC B55C80FE
Copy CRC B55C80FE
Track not present in AccurateRip database
Copy OK
Track 16
Filename M:\EAC\Renée Fleming; Philharmonia Orchestra; Sebastian Lang-Lessing - 2013 - Guilty Pleasures\16 - Once there was a golden bird.wav
Peak level 98.9 %
Extraction speed 7.6 X
Track quality 100.0 %
Test CRC C617EADF
Copy CRC C617EADF
Track not present in AccurateRip database
Copy OK
Track 17
Filename M:\EAC\Renée Fleming; Philharmonia Orchestra; Sebastian Lang-Lessing - 2013 - Guilty Pleasures\17 - Danny Boy.wav
Peak level 81.6 %
Extraction speed 7.8 X
Track quality 100.0 %
Test CRC 7FE5E0F8
Copy CRC 7FE5E0F8
Track not present in AccurateRip database
Copy OK
None of the tracks are present in the AccurateRip database
No errors occurred
End of status report
---- CUETools DB Plugin V2.1.3
[CTDB TOCID: Y64Po2OqbByP2NpIkbHqx8hX6jE-] disk not present in database, Submit result: Y64Po2OqbByP2NpIkbHqx8hX6jE- has been uploaded
==== Log checksum 4FFD583E90212069EC6F24107A50C3D8AB280535091AC27A5753B552CC60BC7A ====

LOG (.CUE):

REM GENRE "Classical - Vocal"
REM DATE 2013
REM DISCID E60EAD11
REM COMMENT "ExactAudioCopy v1.0b3"
CATALOG 0028947851073
PERFORMER "Renйe Fleming; Philharmonia Orchestra; Sebastian Lang-Lessing"
TITLE "Guilty Pleasures"
FILE "Renйe Fleming; Philharmonia Orchestra; Sebastian Lang-Lessing - 2013 - Guilty Pleasures\01 - Villanelle.wav" WAVE
TRACK 01 AUDIO
TITLE "Villanelle"
PERFORMER "Renйe Fleming; Philharmonia Orchestra; Sebastian Lang-Lessing"
ISRC GBF071203690
INDEX 01 00:00:00
FILE "Renйe Fleming; Philharmonia Orchestra; Sebastian Lang-Lessing - 2013 - Guilty Pleasures\02 - Phidylй.wav" WAVE
TRACK 02 AUDIO
TITLE "Phidylй"
PERFORMER "Renйe Fleming; Philharmonia Orchestra; Sebastian Lang-Lessing"
ISRC GBF071203700
INDEX 01 00:00:00
FILE "Renйe Fleming; Philharmonia Orchestra; Sebastian Lang-Lessing - 2013 - Guilty Pleasures\03 - Ombra di nube.wav" WAVE
TRACK 03 AUDIO
TITLE "Ombra di nube"
PERFORMER "Renйe Fleming; Philharmonia Orchestra; Sebastian Lang-Lessing"
ISRC GBF071203710
INDEX 01 00:00:00
FILE "Renйe Fleming; Philharmonia Orchestra; Sebastian Lang-Lessing - 2013 - Guilty Pleasures\04 - Nana.wav" WAVE
TRACK 04 AUDIO
TITLE "Nana"
PERFORMER "Renйe Fleming; Philharmonia Orchestra; Sebastian Lang-Lessing"
ISRC GBF071203720
INDEX 01 00:00:00
FILE "Renйe Fleming; Philharmonia Orchestra; Sebastian Lang-Lessing - 2013 - Guilty Pleasures\05 - Canciуn.wav" WAVE
TRACK 05 AUDIO
TITLE "Canciуn"
PERFORMER "Renйe Fleming; Philharmonia Orchestra; Sebastian Lang-Lessing"
ISRC GBF071203730
INDEX 01 00:00:00
FILE "Renйe Fleming; Philharmonia Orchestra; Sebastian Lang-Lessing - 2013 - Guilty Pleasures\06 - Undina's Aria.wav" WAVE
TRACK 06 AUDIO
TITLE "Undina's Aria"
PERFORMER "Renйe Fleming; Philharmonia Orchestra; Sebastian Lang-Lessing"
ISRC GBF071203740
INDEX 01 00:00:00
FILE "Renйe Fleming; Philharmonia Orchestra; Sebastian Lang-Lessing - 2013 - Guilty Pleasures\07 - Sumerki, op.21 no.3.wav" WAVE
TRACK 07 AUDIO
TITLE "Sumerki, op.21 no.3"
PERFORMER "Renйe Fleming; Philharmonia Orchestra; Sebastian Lang-Lessing"
ISRC GBF071203750
INDEX 01 00:00:00
FILE "Renйe Fleming; Philharmonia Orchestra; Sebastian Lang-Lessing - 2013 - Guilty Pleasures\08 - Les Filles de Cadix.wav" WAVE
TRACK 08 AUDIO
TITLE "Les Filles de Cadix"
PERFORMER "Renйe Fleming; Philharmonia Orchestra; Sebastian Lang-Lessing"
ISRC GBF071203760
INDEX 01 00:00:00
FILE "Renйe Fleming; Philharmonia Orchestra; Sebastian Lang-Lessing - 2013 - Guilty Pleasures\09 - Dфme йpais (Flower Duet, Lakmй) with Susan Graham.wav" WAVE
TRACK 09 AUDIO
TITLE "Dфme йpais (Flower Duet, Lakmй) with Susan Graham"
PERFORMER "Renйe Fleming; Philharmonia Orchestra; Sebastian Lang-Lessing"
ISRC GBF071203770
INDEX 01 00:00:00
FILE "Renйe Fleming; Philharmonia Orchestra; Sebastian Lang-Lessing - 2013 - Guilty Pleasures\10 - La Delaпssбdo.wav" WAVE
TRACK 10 AUDIO
TITLE "La Delaпssбdo"
PERFORMER "Renйe Fleming; Philharmonia Orchestra; Sebastian Lang-Lessing"
ISRC GBF071203780
INDEX 01 00:00:00
FILE "Renйe Fleming; Philharmonia Orchestra; Sebastian Lang-Lessing - 2013 - Guilty Pleasures\11 - Malurous qu'o uno fenno.wav" WAVE
TRACK 11 AUDIO
TITLE "Malurous qu'o uno fenno"
PERFORMER "Renйe Fleming; Philharmonia Orchestra; Sebastian Lang-Lessing"
ISRC GBF071203790
INDEX 01 00:00:00
FILE "Renйe Fleming; Philharmonia Orchestra; Sebastian Lang-Lessing - 2013 - Guilty Pleasures\12 - Za љtнhlou gazelou.wav" WAVE
TRACK 12 AUDIO
TITLE "Za љtнhlou gazelou"
PERFORMER "Renйe Fleming; Philharmonia Orchestra; Sebastian Lang-Lessing"
ISRC GBF071203800
INDEX 01 00:00:00
FILE "Renйe Fleming; Philharmonia Orchestra; Sebastian Lang-Lessing - 2013 - Guilty Pleasures\13 - Vendulka's Lullaby.wav" WAVE
TRACK 13 AUDIO
TITLE "Vendulka's Lullaby"
PERFORMER "Renйe Fleming; Philharmonia Orchestra; Sebastian Lang-Lessing"
ISRC GBF071203810
INDEX 01 00:00:00
FILE "Renйe Fleming; Philharmonia Orchestra; Sebastian Lang-Lessing - 2013 - Guilty Pleasures\14 - Frag' mich oft, woran's denn wohl liegt.wav" WAVE
TRACK 14 AUDIO
TITLE "Frag' mich oft, woran's denn wohl liegt"
PERFORMER "Renйe Fleming; Philharmonia Orchestra; Sebastian Lang-Lessing"
ISRC GBF071203820
INDEX 01 00:00:00
FILE "Renйe Fleming; Philharmonia Orchestra; Sebastian Lang-Lessing - 2013 - Guilty Pleasures\15 - Trдume.wav" WAVE
TRACK 15 AUDIO
TITLE "Trдume"
PERFORMER "Renйe Fleming; Philharmonia Orchestra; Sebastian Lang-Lessing"
ISRC GBF071203830
INDEX 01 00:00:00
FILE "Renйe Fleming; Philharmonia Orchestra; Sebastian Lang-Lessing - 2013 - Guilty Pleasures\16 - Once there was a golden bird.wav" WAVE
TRACK 16 AUDIO
TITLE "Once there was a golden bird"
PERFORMER "Renйe Fleming; Philharmonia Orchestra; Sebastian Lang-Lessing"
ISRC GBF071203840
INDEX 01 00:00:00
FILE "Renйe Fleming; Philharmonia Orchestra; Sebastian Lang-Lessing - 2013 - Guilty Pleasures\17 - Danny Boy.wav" WAVE
TRACK 17 AUDIO
TITLE "Danny Boy"
PERFORMER "Renйe Fleming; Philharmonia Orchestra; Sebastian Lang-Lessing"
ISRC GBF071203850
INDEX 01 00:00:00



Показать сообщения:    

Текущее время: 06-Дек 15:09

Часовой пояс: UTC + 3


Вы не можете начинать темы
Вы не можете отвечать на сообщения
Вы не можете редактировать свои сообщения
Вы не можете удалять свои сообщения
Вы не можете голосовать в опросах
Вы не можете прикреплять файлы к сообщениям
Вы не можете скачивать файлы