(Classical / Vocal / Opera) Pavarotti - Verdi (Aida ♦ Rigoletto ♦ Luisa Miller ♦ I due Foscari ♦ Macbeth ♦ La traviata ♦ Un ballo in maschera ♦ Il trovatore) - 1987, FLAC (image+.cue) lossless


 

[Цитировать]

Pavarotti - Verdi
Жанр: Classical / Vocal / Opera
Страна-производитель диска: West Germany
Год издания диска: 1987
Издатель (лейбл): London Records; Decca
Номер по каталогу: 417 570-2
Дата записи: 1968-1985
Аудиокодек: FLAC
Тип рипа: image+.cue
Битрейт аудио: lossless
Продолжительность: 00:53:52
Источник: собственный рип
Наличие сканов в содержимом раздачи: да
Треклист:
01. Se quel guerrier io fossi… Celeste Aida (Aida) 4.33
Orchester der Wiener Volksoper • Leone Magiera
02. Questa o quella (Rigoletto) 1.50
London Symphony Orchestra • Richard Bonynge
03. Ella mi fu rapita . . . Parmi veder le lagrime (Rigoletto) 4.47
London Symphony Orchestra • Richard Bonynge
04. La donna è mobile (Rigoletto) 2.24
London Symphony Orchestra • Richard Bonynge
05. Oh! fede negar potessi. . . Quando le sere al placido (Luisa Miller) 5.43
Wiener Opernorchester • Edward Downes
06. Ah sì, ch'io senta ancora… Dal più remoto esilio (I due Foscari) 5.43
Wiener Opernorchester • Edward Downes
07. O figli. . . Ah, la paterna mano (Macbeth) 3.44
Wiener Opernorchester • Edward Downes
08. Lunge da lei... De' miei bollenti spiriti (La traviata) 3.55
National Philharmonic Orchestra • Richard Bonynge
09. La rivedrà nell'estasi (Un ballo in maschera) 2.04
Kathleen Battle (Oscar), Robert Lloyd (Samuel), Malcolm King (Tom)
London Opera Chorus (chorus master: Terry Edwards)
National Philharmonic Orchestra • Sir Georg Solti

10. Di' tu se fedele (Un ballo in maschera) 3.08
London Opera Chorus (chorus master: Terry Edwards)
National Philharmonic Orchestra • Sir Georg Solti

11. Forse la soglia attinse… Ma se m'è forza perderti (Un ballo in maschera) 5.36
National Philharmonic Orchestra • Sir Georg Solti
12. Di qual tetra luce… Ah sì, ben mio… L'onda de' suoni mistici... Di quella pira (Il trovatore) 10.18
Gildis Flossman (Leonora), Peter Baillie (Ruiz)
Wiener Opernorchester und -Chor • Nicola Rescigno

Исполнители:
указаны в треклисте

Лог создания рипа

Exact Audio Copy V1.0 beta 3 from 29. August 2011
EAC extraction logfile from 11. January 2015, 21:40
Luciano Pavarotti / Pavarotti - Verdi
Used drive : PLEXTOR DVDR PX-612U Adapter: 2 ID: 0
Read mode : Secure
Utilize accurate stream : Yes
Defeat audio cache : Yes
Make use of C2 pointers : No
Read offset correction : 6
Overread into Lead-In and Lead-Out : No
Fill up missing offset samples with silence : Yes
Delete leading and trailing silent blocks : No
Null samples used in CRC calculations : Yes
Used interface : Native Win32 interface for Win NT & 2000
Used output format : User Defined Encoder
Selected bitrate : 128 kBit/s
Quality : High
Add ID3 tag : No
Command line compressor : C:\Program Files (x86)\Exact Audio Copy\Flac\flac.exe
Additional command line options : -V -8 -T "Date=%year%" -T "Genre=%genre%" %source%
TOC of the extracted CD
Track | Start | Length | Start sector | End sector
---------------------------------------------------------
1 | 0:00.33 | 4:33.25 | 33 | 20532
2 | 4:33.58 | 1:51.32 | 20533 | 28889
3 | 6:25.15 | 4:48.23 | 28890 | 50512
4 | 11:13.38 | 2:24.27 | 50513 | 61339
5 | 13:37.65 | 5:42.38 | 61340 | 87027
6 | 19:20.28 | 5:43.30 | 87028 | 112782
7 | 25:03.58 | 3:43.37 | 112783 | 129544
8 | 28:47.20 | 3:57.00 | 129545 | 147319
9 | 32:44.20 | 2:03.58 | 147320 | 156602
10 | 34:48.03 | 3:09.00 | 156603 | 170777
11 | 37:57.03 | 5:37.62 | 170778 | 196114
12 | 43:34.65 | 10:17.60 | 196115 | 242449
Range status and errors
Selected range
Filename D:\Pavarotti - Verdi.wav
Peak level 97.8 %
Extraction speed 2.9 X
Range quality 99.9 %
Test CRC 6E6000E9
Copy CRC 6E6000E9
Copy OK
No errors occurred
AccurateRip summary
Track 1 accurately ripped (confidence 9) [F56CE6A8] (AR v2)
Track 2 accurately ripped (confidence 9) [73755756] (AR v2)
Track 3 accurately ripped (confidence 9) [F8FA32D5] (AR v2)
Track 4 accurately ripped (confidence 9) [92610A8D] (AR v2)
Track 5 accurately ripped (confidence 9) [041B5E16] (AR v2)
Track 6 accurately ripped (confidence 9) [67CA6959] (AR v2)
Track 7 accurately ripped (confidence 9) [1473B470] (AR v2)
Track 8 accurately ripped (confidence 9) [1E1ECE24] (AR v2)
Track 9 accurately ripped (confidence 9) [C79D8C36] (AR v2)
Track 10 accurately ripped (confidence 9) [E7849103] (AR v2)
Track 11 accurately ripped (confidence 9) [CE46A77F] (AR v2)
Track 12 accurately ripped (confidence 9) [88C4E599] (AR v2)
All tracks accurately ripped
End of status report
==== Log checksum 78DB42C49566788C02B82FBFB4655FB987561A0DC12565E2EB3EA43760D3D005 ====

Содержание индексной карты (.CUE)

REM GENRE Opera
REM DATE 1987
REM DISCID B20CA00C
REM COMMENT "ExactAudioCopy v1.0b3"
PERFORMER "Luciano Pavarotti"
TITLE "Pavarotti - Verdi"
FILE "Pavarotti - Verdi.flac" WAVE
TRACK 01 AUDIO
TITLE "Se quel guerrier io fossi… Celeste Aida (Aida)"
PERFORMER "Luciano Pavarotti"
INDEX 00 00:00:00
INDEX 01 00:00:33
TRACK 02 AUDIO
TITLE "Questa o quella (Rigoletto)"
PERFORMER "Luciano Pavarotti"
INDEX 01 04:33:58
TRACK 03 AUDIO
TITLE "Ella mi fu rapita… Parmi veder le lagrime (Rigoletto)"
PERFORMER "Luciano Pavarotti"
INDEX 00 06:23:65
INDEX 01 06:25:15
TRACK 04 AUDIO
TITLE "La donna è mobile (Rigoletto)"
PERFORMER "Luciano Pavarotti"
INDEX 00 11:11:58
INDEX 01 11:13:38
TRACK 05 AUDIO
TITLE "Oh! fede negar potessi… Quando le sere al placido (Luisa Miller)"
PERFORMER "Luciano Pavarotti"
INDEX 01 13:37:65
TRACK 06 AUDIO
TITLE "Ah sì, ch'io senta ancora… Dal più remoto esilio (I due Foscari)"
PERFORMER "Luciano Pavarotti"
INDEX 01 19:20:28
TRACK 07 AUDIO
TITLE "O figli… Ah, la paterna mano (Macbeth)"
PERFORMER "Luciano Pavarotti"
INDEX 01 25:03:58
TRACK 08 AUDIO
TITLE "Lunge da lei… De' miei bollenti spiriti (La traviata)"
PERFORMER "Luciano Pavarotti"
INDEX 01 28:47:20
TRACK 09 AUDIO
TITLE "La rivedrà nell'estasi (Un ballo in maschera)"
PERFORMER "Luciano Pavarotti"
INDEX 00 32:42:48
INDEX 01 32:44:20
TRACK 10 AUDIO
TITLE "Di' tu se fedele (Un ballo in maschera)"
PERFORMER "Luciano Pavarotti"
INDEX 01 34:48:03
TRACK 11 AUDIO
TITLE "Forse la soglia attinse… Ma se m'è forza perderti (Un ballo in maschera)"
PERFORMER "Luciano Pavarotti"
INDEX 00 37:55:53
INDEX 01 37:57:03
TRACK 12 AUDIO
TITLE "Di qual tetra luce… Ah sì, ben mio… Di quella pira (Il trovatore)"
PERFORMER "Luciano Pavarotti"
INDEX 00 43:32:55
INDEX 01 43:34:65

Back, disc, matrix, spectrogram




Показать сообщения:    

Текущее время: 06-Дек 13:13

Часовой пояс: UTC + 3


Вы не можете начинать темы
Вы не можете отвечать на сообщения
Вы не можете редактировать свои сообщения
Вы не можете удалять свои сообщения
Вы не можете голосовать в опросах
Вы не можете прикреплять файлы к сообщениям
Вы не можете скачивать файлы