Концертиссимо / Koncertissimo (Йожеф Гемеш / József Gémes) [1968, Венгрия, авторская анимация, WEBRip]


 

[Цитировать]

Концертиссимо / Koncertissimo
Страна: Венгрия
Жанр: авторская анимация
Год выпуска: 1968
Продолжительность: 00:03:20
Перевод: не требуется
Cубтитры: нет
Режиссёр: Йожеф Гемеш / József Gémes
Описание: Дебютный фильм Йожефа Гемеша. Фестивальный хит тех лет.
В роскошном концертном зале собирается богатая публика, а на сцене вместо оркестра - армия, нацеливающая разнокалиберные стволы в зал...
Доп. информация: Специальный приз жюри "Золотой дракон" на фестивале в Кракове
Приз "Серебряный Хьюго" на фестивале в Чикаго
Приз на фестивале в Лейпциге
Качество видео: WEBRip
Формат видео: AVI
Видео: 2346 kbps, 704х512 (1.375), 24.000 fps, MPEG-4 Visual (XviD)
Аудио: 192 kbps, 44.1 kHz, 2 channels, MPEG Audio (MP3)

MediaInfo

General
Complete name : Koncertissimo (1968).avi
Format : AVI
Format/Info : Audio Video Interleave
File size : 60.8 MiB
Duration : 3mn 20s
Overall bit rate : 2 548 Kbps
Writing library : VirtualDub build 35491/release
Video
ID : 0
Format : MPEG-4 Visual
Format profile : Advanced Simple@L5
Format settings, BVOP : 2
Format settings, QPel : No
Format settings, GMC : No warppoints
Format settings, Matrix : Default (H.263)
Codec ID : XVID
Codec ID/Hint : XviD
Duration : 3mn 20s
Bit rate : 2 346 Kbps
Width : 704 pixels
Height : 512 pixels
Display aspect ratio : 1.375
Frame rate : 24.000 fps
Color space : YUV
Chroma subsampling : 4:2:0
Bit depth : 8 bits
Scan type : Progressive
Compression mode : Lossy
Bits/(Pixel*Frame) : 0.271
Stream size : 56.0 MiB (92%)
Writing library : XviD 64
Audio
ID : 1
Format : MPEG Audio
Format version : Version 1
Format profile : Layer 3
Mode : Joint stereo
Codec ID : 55
Codec ID/Hint : MP3
Duration : 3mn 20s
Bit rate mode : Constant
Bit rate : 192 Kbps
Channel(s) : 2 channels
Sampling rate : 44.1 KHz
Compression mode : Lossy
Stream size : 4.57 MiB (8%)
Alignment : Split accross interleaves
Interleave, duration : 42 ms (1.00 video frame)
Interleave, preload duration : 500 ms

Скриншот c названием фильма

Скриншоты




Показать сообщения:    

Текущее время: 07-Дек 19:30

Часовой пояс: UTC + 3


Вы не можете начинать темы
Вы не можете отвечать на сообщения
Вы не можете редактировать свои сообщения
Вы не можете удалять свои сообщения
Вы не можете голосовать в опросах
Вы не можете прикреплять файлы к сообщениям
Вы не можете скачивать файлы