На съемочной площадке фильма Труп моего врага / Tournage du film: Le Corps de mon ennemi (Жиль Эрве / Gilles Herve) [29.06.1976, документальный, кинематограф, IPTVRip-AVC] VO (Urasik) + VO (Andi999) + Original (Fre) + Sub Rus (Lisok)


Статистика раздачи [Обновить пиров]
Размер:  69 MB   |    Зарегистрирован:  8 месяцев 16 дней   |    Скачан:  0 раз

Полного источника не было: Никогда

Личеров:  6  [  0 KB/s  ]   Подробная статистика пиров
 
   
 
 
 

[Цитировать]

На съемочной площадке фильма "Труп моего врага"
Tournage du film: Le Corps de mon ennemi- Дата/Год выпуска: 29.06.1976
Страна: Франция
Жанр: документальный, кинематограф
Продолжительность: 00:03:43
Перевод 1: Одноголосый закадровый (Urasik)
Перевод 2: Одноголосый закадровый (Andi999)
Русские субтитры: естьФормат субтитров: softsub (SRT)
Доп. информация о субтитрах: перевод Lisok , инициатор Алексей Проскуряков aka Aleks Punk
Оригинальная аудиодорожка: французский
Режиссер: Жиль Эрве / Gilles Hervé
Телеканал: ina
Описание: Репортаж канала France Régions 3 Lille со съемок сцен будущего фильма "Труп моего врага" в Лиле. Режиссер Анри Верней и актер Жан-Поль Бельмондо делятся своими мыслями о новом фильме. Берет интервью журналист Жиль Эрве / Gilles Hervé.
Доп. информация: За предоставленный материал благодарность Aleks Punk.

качество: IPTVRip-AVC
формат: MKV
Видео: AVC (H.264), 640x480 (4:3), 25 fps, ~2000 kbps avg, 0.260 bit/pixel
Аудио 1: AC3, 2 ch, 48 kHz, ~192.00 kbps avg - русский (Urasik)
Аудио 2: AC3, 2 ch, 48 kHz, ~192.00 kbps avg - русский (Andi999)
Аудио 3: AC3, 2 ch, 48 kHz, ~192.00 kbps avg - французский

Пример субтитров

1
00:00:03,120 --> 00:00:06,360
В общих чертах, это персонаж,
ставший жертвой несправделивости,
2
00:00:06,360 --> 00:00:08,760
отсидевший в тюрьме за то,
чего не делал.
3
00:00:08,760 --> 00:00:10,540
Он возвращается в город,
4
00:00:10,540 --> 00:00:13,000
чтобы, прежде всего, найти того,
кто совершил это преступление
5
00:00:13,000 --> 00:00:16,780
и кто отправил его в тюрьму.
Вот. Это в общих чертах.
6
00:00:16,780 --> 00:00:20,360
Город, в который приехал Жан-Поль Бельмондо
на встречу со своим прошлым, - это Лилль.
7
00:00:20,360 --> 00:00:24,380
Фильм, адаптированный Мишелем Одиаром
по роману Фелисьена Марсо,
8
00:00:24,380 --> 00:00:28,260
называется "Труп моего врага".
Снимается Анри Вернейем,
9
00:00:28,260 --> 00:00:30,260
и выйдет в середине октября.
10
00:00:30,260 --> 00:00:34,760
Натурные съёмки проходили
в мае в Лилле, Рубее и Туркуа.
11
00:00:35,040 --> 00:00:36,860
Помимо Жана-Поля Бельмондо
12
00:00:36,920 --> 00:00:40,940
в фильме снимаются Мари-Франс Пизье,
Даниэль Ивернель и Бернар Блие.
13
00:00:40,940 --> 00:00:45,480
Этот фильм не очень свойственен
творчеству Анри Вернейя.
14
00:00:45,600 --> 00:00:47,600
Стрельба там, наверняка, будет,
15
00:00:47,600 --> 00:00:49,460
но меньше, чем обычно.
16
00:00:50,440 --> 00:00:52,400
Это не боевик.
17
00:00:52,400 --> 00:00:56,720
У Анри Вернейя есть фильмы
со стрельбой и без.
18
00:00:56,720 --> 00:01:01,860
"Обезьяна зимой" с тем же Бельмондо -
это был фильм без стрельбы.
19
00:01:01,860 --> 00:01:05,560
"Ограбление", "Сицилийский клан"
и "Страх над городом" -
20
00:01:05,620 --> 00:01:07,320
это были фильмы со стрельбой.

MediaInfo

Общее
Уникальный идентификатор : 226828060575306311825391340450549313690 (0xAAA57ED31E91245CA6AAD69F6CDFB09A)
Полное имя : H:\My Torrents\[apreder]Tournage_du_film_Le_Corps_de_mon_ennemi(29.06.1976)IPTVRip.mkv
Формат : Matroska
Версия формата : Version 2
Размер файла : 69,3 Мбайт
Продолжительность : 3 м. 46 с.
Общий поток : 2565 Кбит/сек
Дата кодирования : UTC 2015-09-23 11:34:27
Программа кодирования : mkvmerge v8.4.0 ('A better way to fly') 64bit
Библиотека кодирования : libebml v1.3.1 + libmatroska v1.4.2
Attachements : cover.jpg / cover_small.jpg
TITLE : Tournage du film: Le Corps de mon ennemi
DATE_RELEASED : 1976-06-29
LAW_RATING : 12+
GENRE : Documentary
ACTOR : Jean-Paul Belmondo
DIRECTOR : Gilles Hervé
KEYWORDS : rutracker.org
Видео
Идентификатор : 1
Формат : AVC
Формат/Информация : Advanced Video Codec
Профиль формата : High@L4.1
Параметр CABAC формата : Да
Параметр ReFrames формата : 16 кадров
Идентификатор кодека : V_MPEG4/ISO/AVC
Продолжительность : 3 м. 46 с.
Битрейт : 2000 Кбит/сек
Ширина : 640 пикселей
Высота : 480 пикселей
Соотношение сторон : 4:3
Режим частоты кадров : Постоянный
Частота кадров : 25,000 кадров/сек
Цветовое пространство : YUV
Субдискретизация насыщенности : 4:2:0
Битовая глубина : 8 бит
Тип развёртки : Прогрессивная
Бит/(Пиксели*Кадры) : 0.260
Размер потока : 52,4 Мбайт (76%)
Библиотека кодирования : x264 core 144 r2525 40bb568
Настройки программы : cabac=1 / ref=16 / deblock=1:-1:-1 / analyse=0x3:0x133 / me=umh / subme=10 / psy=1 / psy_rd=1.00:0.15 / mixed_ref=1 / me_range=24 / chroma_me=1 / trellis=2 / 8x8dct=1 / cqm=0 / deadzone=21,11 / fast_pskip=1 / chroma_qp_offset=-3 / threads=6 / lookahead_threads=1 / sliced_threads=0 / nr=0 / decimate=1 / interlaced=0 / bluray_compat=0 / constrained_intra=0 / bframes=8 / b_pyramid=2 / b_adapt=2 / b_bias=0 / direct=3 / weightb=1 / open_gop=0 / weightp=2 / keyint=250 / keyint_min=25 / scenecut=40 / intra_refresh=0 / rc_lookahead=60 / rc=2pass / mbtree=1 / bitrate=2000 / ratetol=1.0 / qcomp=0.60 / qpmin=0 / qpmax=69 / qpstep=4 / cplxblur=20.0 / qblur=0.5 / vbv_maxrate=62500 / vbv_bufsize=78125 / nal_hrd=none / filler=0 / ip_ratio=1.40 / aq=1:1.00
Default : Да
Forced : Нет
Аудио #1
Идентификатор : 2
Формат : AC-3
Формат/Информация : Audio Coding 3
Расширение режима : CM (complete main)
Параметр Endianness формата : Big
Идентификатор кодека : A_AC3
Продолжительность : 3 м. 46 с.
Вид битрейта : Постоянный
Битрейт : 192 Кбит/сек
Каналы : 2 канала
Расположение каналов : Front: L R
Частота : 48,0 КГц
Метод сжатия : С потерями
Размер потока : 5,19 Мбайт (7%)
Заголовок : Urasik
Язык : Russian
Default : Нет
Forced : Нет
Аудио #2
Идентификатор : 3
Формат : AC-3
Формат/Информация : Audio Coding 3
Расширение режима : CM (complete main)
Параметр Endianness формата : Big
Идентификатор кодека : A_AC3
Продолжительность : 3 м. 46 с.
Вид битрейта : Постоянный
Битрейт : 192 Кбит/сек
Каналы : 2 канала
Расположение каналов : Front: L R
Частота : 44,1 КГц
Метод сжатия : С потерями
Размер потока : 5,19 Мбайт (7%)
Заголовок : Andi999
Язык : Russian
Default : Да
Forced : Нет
Аудио #3
Идентификатор : 4
Формат : AC-3
Формат/Информация : Audio Coding 3
Расширение режима : CM (complete main)
Параметр Endianness формата : Big
Идентификатор кодека : A_AC3
Продолжительность : 3 м. 46 с.
Вид битрейта : Постоянный
Битрейт : 192 Кбит/сек
Каналы : 2 канала
Расположение каналов : Front: L R
Частота : 48,0 КГц
Метод сжатия : С потерями
Размер потока : 5,19 Мбайт (7%)
Язык : French
Default : Нет
Forced : Нет
Текст
Идентификатор : 5
Формат : UTF-8
Идентификатор кодека : S_TEXT/UTF8
Идентификатор кодека/Информация : UTF-8 Plain Text
Default : Нет
Forced : Нет

Скриншоты

Резервные скриншоты

- [2'067]
[teatrix.ru].t20171.torrent 
Торрент: Зарегистрирован [ 2016-03-19 00:55 ] · 66DBBFA40BAF669460A1CC71A7BD1DFD584F9BFA

Скачать .torrent

Скачать

11 KB

Статус: проверено
Скачан: 0 раз
Размер: 69 MB
terms.php



Показать сообщения:    

Текущее время: 04-Дек 02:54

Часовой пояс: UTC + 3


Вы не можете начинать темы
Вы не можете отвечать на сообщения
Вы не можете редактировать свои сообщения
Вы не можете удалять свои сообщения
Вы не можете голосовать в опросах
Вы не можете прикреплять файлы к сообщениям
Вы можете скачивать файлы