[TR24][SM][OF] Alma & Gustav Mahler - Lieder / Karen Cargill & Simon Lepper - 2014 (Classical)


Статистика раздачи [Обновить пиров]
Размер:  917 MB   |    Зарегистрирован:  8 месяцев 21 день   |    Скачан:  0 раз

Полного источника не было: Никогда

Личеров:  6  [  0 KB/s  ]   Подробная статистика пиров
 
   
 
 
 

[Цитировать]


Формат записи/Источник записи: [TR24][SM][OF]
Наличие водяных знаков: Нет
Издание: CKD 453
Год издания/переиздания диска: 2014
Жанр: Classical
Издатель(лейбл): Linn Records
Продолжительность: 00:53:32
Наличие сканов в содержимом раздачи: cover art, inlay, booklet
Треклист:
Alma Mahler (1879-1964)
Fünf Lieder
1 Die stille Stadt 2:54
2 In meines Vaters Garten 6:11
3 Laue Sommernacht 2:07
4 Bei dir ist es traut 1:54
5 Ich wandle unter Blumen 1:17
Gustav Mahler (1860-1911)
Rückert Lieder
6 Blicke mir nicht in die Lieder 1:18
7 Ich atmet' einen linden Duft! 2:13
8 Liebst du um Schönheit 2:43
9 Um Mitternacht 5:45
10 Ich bin der Welt abhanden gekommen 6:04
Lieder eines fahrenden Gesellen
11 Wenn mein Schatz Hochzeit macht 3:32
12 Ging heut morgen übers Feld 4:10
13 Ich hab' ein glühend Messer 2:54
14 Die zwei blauen Augen von meinem Schatz 5:45
Symphony No. 2 "Resurrection"
15 IV. Urlicht 4:40
Контейнер: FLAC (*.flac)
Тип рипа: tracks
Разрядность: 24/96
Формат: WAV (flac.ape.wv)
Количество каналов: 2.0
Источник (релизер): http://www.linnrecords.com/recording-alma-gustav-mahler-lieder.aspx
Karen Cargill - Mezzo-soprano
Simon Lepper - Piano-

Dynamic Range Meter

foobar2000 1.2.6 / Dynamic Range Meter 1.1.1
log date: 2015-01-22 22:50:33
--------------------------------------------------------------------------------
Analyzed: Karen Cargill, Simon Lepper / Alma & Gustav Mahler Lieder
--------------------------------------------------------------------------------
DR Peak RMS Duration Track
--------------------------------------------------------------------------------
DR17 -2.95 dB -27.43 dB 2:54 01-Fünf Lieder - Die stille Stadt
DR15 -0.37 dB -22.49 dB 6:11 02-Fünf Lieder - In meines Vaters Garten
DR13 -3.84 dB -24.13 dB 2:07 03-Fünf Lieder - Laue Sommernacht
DR12 -10.58 dB -31.68 dB 1:54 04-Fünf Lieder - Bei dir ist es traut
DR13 -2.11 dB -25.93 dB 1:17 05-Fünf Lieder - Ich wandle unter Blumen
DR12 -8.03 dB -25.48 dB 1:18 06-Rückert Lieder - Blicke mir nicht in die Lieder
DR11 -9.94 dB -28.97 dB 2:14 07-Rückert Lieder - Ich atmet einen linden Duft
DR12 -7.46 dB -29.23 dB 2:44 08-Rückert Lieder - Liebst du um Schonheit
DR12 -2.39 dB -22.07 dB 5:45 09-Rückert Lieder - Um Mitternacht
DR15 -3.94 dB -29.41 dB 6:04 10-Rückert Lieder - Ich bin der Welt abhanden gekommen
DR14 -3.30 dB -25.53 dB 3:32 11-Lieder eines fahrenden Gesellen - Wenn mein Schatz Hochzeit macht
DR14 -0.40 dB -22.40 dB 4:10 12-Lieder eines fahrenden Gesellen - Ging heut morgen uber s Feld
DR12 -1.84 dB -19.49 dB 2:54 13-Lieder eines fahrenden Gesellen - Ich hab ein gluhend Messer
DR14 -5.70 dB -26.99 dB 5:45 14-Lieder eines fahrenden Gesellen - Die zwei blauen Augen von meinem Schatz
DR16 -3.37 dB -27.81 dB 4:41 15-Symphony No. 2 ‘Resurrection’ - IV. Urlicht
--------------------------------------------------------------------------------
Number of tracks: 15
Official DR value: DR13
Samplerate: 96000 Hz
Channels: 2
Bits per sample: 24
Bitrate: 2290 kbps
Codec: FLAC
================================================================================
[teatrix.ru].t20173.torrent 
Торрент: Зарегистрирован [ 2016-03-19 00:56 ] · 787A50D7AF1D335F07BD55E27C15FDAB3E8F7D86

Скачать .torrent

Скачать

20 KB

Статус: проверено
Скачан: 0 раз
Размер: 917 MB
terms.php



Быстрый ответ

Имя:

      
Для отправки сообщений необходимо включить JavaScript
Показать сообщения:    

Текущее время: 09-Дек 12:41

Часовой пояс: UTC + 3


Вы можете начинать темы
Вы можете отвечать на сообщения
Вы не можете редактировать свои сообщения
Вы не можете удалять свои сообщения
Вы не можете голосовать в опросах
Вы не можете прикреплять файлы к сообщениям
Вы можете скачивать файлы