[TR24][SM][OF] Francisco Guerrero - Missa Surge propera - Peter Phillips & The Tallis Scholars - 2006 (Classical)


Статистика раздачи [Обновить пиров]
Размер:  1.3 GB   |    Зарегистрирован:  8 месяцев 20 дней   |    Скачан:  1 раз

Полного источника не было: 7 месяцев 14 дней

Личеров:  81  [  0 KB/s  ]   Подробная статистика пиров
 
   
 
 
 

[Цитировать]

Francisco Guerrero (1528-1599)

Формат записи/Источник записи: [TR24][SM][OF]
Наличие водяных знаков: Нет
Издание: CDGIM 040
Год издания/переиздания диска: 2006
Жанр: Choral
Издатель(лейбл): Gimell Records
Продолжительность: 66:57
Наличие сканов в содержимом раздачи: artwork + booklet
Треклист:
Missa Surge propera 31.12
1. Kyrie 3.29
2. Gloria 5.30
3. Credo 8.54
4. Sanctus and Benedictus 7.17
5. Agnus Dei 5.42
6. Usquequo, Domine 5.24
7. Ave Maria 4.15
8. Hei mihi, Domine 4.21
9. Surge propera 7.21
10. Beata Dei genitrix 6.22
11. Ave virgo sanctissima 3.57
12. Regina caeli laetare 4.25
Контейнер: FLAC (*.flac)
Тип рипа: tracks
Разрядность: 24/96
Формат: WAV (flac.ape.wv)
Количество каналов: 2.0
Источник (релизер): http://www.hyperion-records.co.uk/dc.asp?dc=D_CDGIM040-

Состав

The Tallis Scholars:
Soprano - Deborah Roberts, Tessa Bonner, Janet Coxwell, Carys Lane, Louisa Perfect (7)
Alto - Caroline Trevor, Patrick Craig, Kim Porter (1-5,7,9,10,12), Stephen Taylor (1-5,7,9,10,12)
Tenor - Andrew Carwood, Nicholas Todd, Julian Podger (6-8, 12), Christopher Watson (6-8,12)
Bass - Donald Greig, Francis Steele, Jonathan Arnold (7,12), Robert Macdonald (7,12)
Directed by Peter Phillips

Dynamic Range Meter

foobar2000 1.2.6 / Dynamic Range Meter 1.1.1
log date: 2015-01-22 23:16:42
--------------------------------------------------------------------------------
Analyzed: The Tallis Scholars / Francisco Guerrero - Missa Surge propera
--------------------------------------------------------------------------------
DR Peak RMS Duration Track
--------------------------------------------------------------------------------
DR12 -3.34 dB -20.32 dB 3:27 01-Missa Surge propera - Kyrie
DR13 -1.76 dB -20.44 dB 5:30 02-Missa Surge propera - Gloria
DR13 -4.30 dB -21.54 dB 8:54 03-Missa Surge propera - Credo
DR13 -2.74 dB -21.65 dB 7:17 04-Missa Surge propera - Sanctus & Benedictus
DR14 -3.99 dB -22.53 dB 5:42 05-Missa Surge propera - Agnus Dei
DR14 -0.86 dB -21.72 dB 5:24 06-Usquequo, Domine
DR14 -0.08 dB -20.17 dB 4:15 07-Ave Maria
DR15 -0.13 dB -20.35 dB 4:21 08-Hei mihi, Domine
DR14 -0.28 dB -21.37 dB 7:21 09-Surge propera
DR14 -2.34 dB -21.87 dB 6:22 10-Beata Dei genitrix
DR12 -3.09 dB -21.50 dB 3:57 11-Ave virgo sanctissima
DR13 -0.60 dB -18.42 dB 4:21 12-Regina caeli laetare
--------------------------------------------------------------------------------
Number of tracks: 12
Official DR value: DR13
Samplerate: 96000 Hz
Channels: 2
Bits per sample: 24
Bitrate: 2796 kbps
Codec: FLAC
================================================================================
[teatrix.ru].t20176.torrent 
Торрент: Зарегистрирован [ 2016-03-19 00:43 ] · 5D04C8377F82CE19F23E3A59541C28A86AF29ABB

Скачать .torrent

Скачать

14 KB

Статус: проверено
Скачан: 1 раз
Размер: 1.3 GB
terms.php



Быстрый ответ

Имя:

      
Для отправки сообщений необходимо включить JavaScript
Показать сообщения:    

Текущее время: 08-Дек 14:56

Часовой пояс: UTC + 3


Вы можете начинать темы
Вы можете отвечать на сообщения
Вы не можете редактировать свои сообщения
Вы не можете удалять свои сообщения
Вы не можете голосовать в опросах
Вы не можете прикреплять файлы к сообщениям
Вы можете скачивать файлы