Елена Образцова. Люди. Опера. Жизнь (Дмитрий Нецветов) (4 серии из 4) [2006, документальный, музыка, биография, DVB-AVC]


Статистика раздачи [Обновить пиров]
Размер:  2.17 GB   |    Зарегистрирован:  8 месяцев 21 день   |    Скачан:  0 раз

Полного источника не было: Никогда

 
   
 
 
 

[Цитировать]

Елена Образцова. Люди. Опера. Жизнь
Дата/Год выпуска: 2006
Страна: Россия
Жанр: документальный, музыка, биография
Продолжительность: 4х00:25:42
Перевод: Не требуется
Режиссер: Дмитрий Нецветов
Телеканал: Культура
Описание: Ее карьера началась стремительно с триумфального дебюта в Большом театре в 1964 году. Далее были победы на престижнейших конкурсах, открывшие дорогу на мировую оперную сцену: "Ла Скала", "Метрополитен-Опера", "Ковент-Гарден", Опера Сан-Франциско, Венская опера, Театр "Лисео", "Гранд-Опера".
Среди лучших образов, созданных ею - Марфа, Амнерис, Марина Мнишек, Шарлотта, Графиня, Кармен, Сантуцца, Эболи, Азучена, Ульрика. Одни из самых значимых моментов в ее творческой биографии - работы с Георгием Свиридовым над циклами его вокальных произведений и с Франко Дзеффирелли в постановках опер "Сельская честь", "Кармен", "Бал-маскарад".
Свои размышления о музыке и людях, о жестокости публики и великодушии звезд, откровениях великих исполнителей и тайнах оперного закулисья Елена Образцова старалась хранить только для себя. Импровизированные дневники складывались из школьных тетрадок, нотных обложек, салфеток в кафе и фирменных бланков отелей. Впервые многое из этих записей певица открывает для телезрителей.
Автор: Алексей Королев
Над программой также работали: Анатолий Авагин, Владимир Деревянкин, Ольга Пожалова, Татьяна Бобкова, Анастасия Ганина, Владислав Трушин, Александр Чешев, Александр Горностаев, Андрей Гололобов, Александр Скрябин, Сергей Красноцветов, Наталья Богданова, Рифат Фятяхотдинов, Евгений Семенков.
Сэмпл: http://sendfile.su/1076770
качество: DVB-AVC (РТРС-1)
формат: TS
Видео: H264 720x576 (15:11) 25fps ~2500 Kbps
Аудио: MP2 48000Hz 2ch mono 192 Kbps

Список выпусков/серий

ФИЛЬМ 1-Й
Рассказ о дебюте в Большом театре, о работе с Борисом Покровским, Галиной Вишневской, Зурабом Анджапаридзе
ФИЛЬМ 2-Й
О гастролях "Ла Скала" в СССР, встречах с великими музыкантами, приехавшими тогда в Москву. Позже Образцова встретится с ними не как восторженный зритель, а как равноправный партнер в спектаклях. И не всегда сотрудничество на сцене переходило в дружбу за кулисами. О встречах с Г. фон Караяном, Ф. Коссотто, Р. Скотто, Б. Нильсон.
ФИЛЬМ 3-Й
Учеба в Консерватории - успехи на сцене и первый настоящий роман. Дебютный спектакль "Кармен" превращается в выяснение отношений на сцене. И все последующие постановки "Кармен", где бы они не проходили, всегда сопровождались переживаниями в личной жизни...
ФИЛЬМ 4-Й
Работа с Георгием Свиридовым - испытание на прочность, продолжавшееся даже во время их совместных концертов. На даче композитора состоялось много запомнившихся встреч. Здесь собирались почти все ее друзья, артисты Большого театра, многим из которых она обязана своим стремительным карьерным взлетом. Образцова вспоминает Альгиса Жюрайтиса, а также невероятные события, связанные с ее триумфами в постановках "Гранд-Опера", "Ла Скала" и съемками фильма "Сельская честь" Фрако Дзеффирелли

MediaInfo

Format                         : MPEG-TS
File size : 551 MiB
Duration : 25mn 42s
Overall bit rate mode : Variable
Overall bit rate : 2 997 Kbps
Video
ID : 1061 (0x425)
Menu ID : 1 (0x1)
Format : AVC
Format/Info : Advanced Video Codec
Format profile : Main@L3.0
Format settings, CABAC : Yes
Format settings, ReFrames : 3 frames
Codec ID : 27
Duration : 25mn 41s
Bit rate : 2 655 Kbps
Width : 720 pixels
Height : 576 pixels
Display aspect ratio : 4:3
Frame rate : 25.000 fps
Standard : Component
Color space : YUV
Chroma subsampling : 4:2:0
Bit depth : 8 bits
Scan type : Interlaced
Bits/(Pixel*Frame) : 0.256
Stream size : 488 MiB (89%)
Audio
ID : 1062 (0x426)
Menu ID : 1 (0x1)
Format : MPEG Audio
Format version : Version 1
Format profile : Layer 2
Codec ID : 3
Duration : 25mn 41s
Bit rate mode : Constant
Bit rate : 192 Kbps
Channel(s) : 2 channels
Sampling rate : 48.0 KHz
Compression mode : Lossy
Stream size : 35.3 MiB (6%)
Language : English
Text
ID : 1064 (0x428)-100
Menu ID : 1 (0x1)
Format : Teletext Subtitle
Language : Russian
Menu
ID : 1060 (0x424)
Menu ID : 1 (0x1)
Duration : 25mn 42s
List : 1061 (0x425) (AVC) / 1062 (0x426) (MPEG Audio, English) / 1064 (0x428) ()
Language : / English

Скриншоты

[teatrix.ru].t20177.torrent 
Торрент: Зарегистрирован [ 2016-03-19 00:55 ] · DBD7E15D397E4E1760F0D5CA1578570FF8CB1857

Скачать .torrent

Скачать

11 KB

Статус: проверено
Скачан: 0 раз
Размер: 2.17 GB
terms.php



Быстрый ответ

Имя:

      
Для отправки сообщений необходимо включить JavaScript
Показать сообщения:    

Текущее время: 09-Дек 12:44

Часовой пояс: UTC + 3


Вы можете начинать темы
Вы можете отвечать на сообщения
Вы не можете редактировать свои сообщения
Вы не можете удалять свои сообщения
Вы не можете голосовать в опросах
Вы не можете прикреплять файлы к сообщениям
Вы можете скачивать файлы