Елена Образцова. Люди. Опера. Жизнь (1-4 фильм из 4) (Алексей Королёв) [2006, Документальный, биография, музыка, опера, SATRip]


Статистика раздачи [Обновить пиров]
Размер:  1.31 GB   |    Зарегистрирован:  8 месяцев 14 дней   |    Скачан:  0 раз

Полного источника не было: Никогда

 
   
 
 
 

[Цитировать]

Елена Образцова. Люди. Опера. Жизнь
Дата/Год выпуска: 2006
Страна: Россия
Жанр: Документальный, биография, музыка, опера
Продолжительность: 3 х 00:25:30
Перевод: Не требуется
Русские субтитры: нет
Режиссер: Алексей Королёв
Телеканал: ГТРК "Культура"
Описание: Ее карьера началась стремительно с триумфального дебюта в Большом театре в 1963 году. Далее были победы на престижнейших конкурсах, открывшие дорогу на мировую оперную сцену: Ла Скала, Метрополитен-Опера, Ковент-Гарден, Опера Сан-Франциско, Венская опера, Театр "Лисео", Гранд Опера. Среди лучших образов, созданных ею - Марфа, Амнерис, Марина Мнишек, Шарлотта, Графиня, Кармен, Сантуцца, Эболи, Азучена, Ульрика. Одни из самых значимых моментов в ее творческой биографии - работы с Георгием Свиридовым над циклами его вокальных произведений и с Франко Дзеффирелли в постановках опер "Сельская честь", "Кармен", "Бал-маскарад".
качество: SATRip
формат: AVI
Видео: 704x528 (1.33:1), 25 fps, XviD build 50 ~1669 kbp
Аудио: 48 kHz, MPEG Layer 3, 2 ch, ~128.00 kbps

Список выпусков/серий

Фильм 1. Дебют в Большом театре
Рассказ о дебюте в Большом театре, о работе с Борисом Покровским, Галиной Вишневской, Зурабом Анджапаридзе.
Фильм 2. Гастроли Ла Скала в Москве
О гастролях Ла Скала в Москве, о Биргит Нильсон, работе над ролью Графини в опере Петра Ильича Чайковского "Пиковая дама".
Фильм 3. Учеба в Ленинградской консерватории
Об учебе в Ленинградской консерватории, о конкурсе имени П.И. Чайковского и работе над партией Кармен в одноименной опере Жоржа Бизе.
Фильм 4. Рассказ о Свиридове, Жюрайтисе, Аббадо
Рассказ о работе с Георгием Свиридовым, Альгисом Жюрайтисом, Клаудио Аббадо, о выступлении в театре "Ла Скала".

MediaInfo

General
Complete name : D:\закачки\Елена Образцова\Елена Образцова. Люди. Опера. Жизнь.2006.SATRip.kosta52\Фильм 1. Дебют в Большом театре.avi
Format : AVI
Format/Info : Audio Video Interleave
File size : 330 MiB
Duration : 25mn 31s
Overall bit rate : 1 808 Kbps
Writing application : VirtualDubMod 1.5.10.3 | www.virtualdub-fr.org || (build 2550/release)
Writing library : VirtualDubMod build 2550/release
Video
ID : 0
Format : MPEG-4 Visual
Format profile : Advanced Simple@L5
Format settings, BVOP : Yes
Format settings, QPel : No
Format settings, GMC : No warppoints
Format settings, Matrix : Default (H.263)
Codec ID : XVID
Codec ID/Hint : XviD
Duration : 25mn 31s
Bit rate : 1 670 Kbps
Width : 704 pixels
Height : 528 pixels
Display aspect ratio : 4:3
Frame rate : 25.000 fps
Color space : YUV
Chroma subsampling : 4:2:0
Bit depth : 8 bits
Scan type : Progressive
Bits/(Pixel*Frame) : 0.180
Stream size : 305 MiB (92%)
Writing library : XviD 1.2.1 (UTC 2008-12-04)
Audio
ID : 1
Format : MPEG Audio
Format version : Version 1
Format profile : Layer 3
Codec ID : 55
Codec ID/Hint : MP3
Duration : 25mn 31s
Bit rate mode : Constant
Bit rate : 128 Kbps
Channel(s) : 2 channels
Sampling rate : 48.0 KHz
Stream size : 23.4 MiB (7%)
Alignment : Aligned on interleaves
Interleave, duration : 40 ms (1.00 video frame)
Interleave, preload duration : 504 ms
Writing library : LAME3.99r
Encoding settings : -m s -V 4 -q 2 -lowpass 17 -b 128

Скриншоты

[teatrix.ru].t20183.torrent 
Торрент: Зарегистрирован [ 2016-03-19 00:56 ] · D5A26EA5D6FA8D08FC45917DC633195CBA94675D

Скачать .torrent

Скачать

14 KB

Статус: проверено
Скачан: 0 раз
Размер: 1.31 GB
terms.php



Быстрый ответ

Имя:

      
Для отправки сообщений необходимо включить JavaScript
Показать сообщения:    

Текущее время: 02-Дек 23:07

Часовой пояс: UTC + 3


Вы можете начинать темы
Вы можете отвечать на сообщения
Вы не можете редактировать свои сообщения
Вы не можете удалять свои сообщения
Вы не можете голосовать в опросах
Вы не можете прикреплять файлы к сообщениям
Вы можете скачивать файлы