(Vocal) Boris Christoff - Lebendige Vergangenheit III: Чесноков • Серов • Гречанинов • Мусоргский • Русские народные песни (Борис Христов) - 2008, FLAC (image+.cue) lossless


 

[Цитировать]

Boris Christoff III
Lebendige Vergangenheit
--- Жанр: Vocal
Страна-производитель диска: Austria
Год издания диска: 2008
Издатель (лейбл): Preiser
Дата записи: 1955-57
Аудиокодек: FLAC
Тип рипа: image+.cue
Битрейт аудио: lossless
Продолжительность: 78'54''
Источник: собственный рип
Наличие сканов в содержимом раздачи: да
Треклист:
[01] Серов: Масленница
[02] Народная (ар. Паторжинского): Песня лесорубов
[03] Народная (ар. Паторжинского): Бандура
[04] Народная (ар. Лабинского-Черноярова): Вдоль по Питерской
[05] Народная (ар. Александрова): Вниз по Волге
[06] Народная (ар. Паторжинского): Осенняя ночь
[07] Знаменное песнопение: Псалом 137
[08] Молитва святого Симеона
[09] Чесноков: Господи, помилуй
[10] Сибирская песня (ар. Паторжинского) - Песня 12 разбойников
[11] Гречанинов: Литания
[12] Народная: Песня сибирских каторжан
[13] Мусоргский: Листья шумели уныло
[14] Мусоргский - »Песни и пляски смерти«: I. Трепак
[15] II. Колыбельная
[16] III. Серенада
[17] IV. Полководец
Исполнители:
Boris Christoff - bas
Gerald Moore - piano [12-13]
Feodor Patorjinsky Russian Choir [1-11]
Orchestre National de la Radiodiffusion Française - Georges Tzipine [14-17]-

Лог создания рипа

Exact Audio Copy V1.0 beta 3 from 29. August 2011
EAC extraction logfile from 27. April 2013, 15:37
Boris Christoff / Lebendige Vergangenheit - Boris Christoff II
Used drive : PHILIPS CDRW1610A Adapter: 0 ID: 0
Read mode : Secure
Utilize accurate stream : Yes
Defeat audio cache : Yes
Make use of C2 pointers : No
Read offset correction : 733
Overread into Lead-In and Lead-Out : No
Fill up missing offset samples with silence : Yes
Delete leading and trailing silent blocks : No
Null samples used in CRC calculations : Yes
Used interface : Native Win32 interface for Win NT & 2000
Used output format : User Defined Encoder
Selected bitrate : 128 kBit/s
Quality : High
Add ID3 tag : No
Command line compressor : C:\Program Files\FLAC\flac.exe
Additional command line options : -T "COMMENT=rip by el coronel, rutracker.org" -8 -V %source%
TOC of the extracted CD
Track | Start | Length | Start sector | End sector
---------------------------------------------------------
1 | 0:00.00 | 4:39.50 | 0 | 20974
2 | 4:39.50 | 4:59.45 | 20975 | 43444
3 | 9:39.20 | 3:28.55 | 43445 | 59099
4 | 13:08.00 | 2:12.05 | 59100 | 69004
5 | 15:20.05 | 3:38.32 | 69005 | 85386
6 | 18:58.37 | 5:24.38 | 85387 | 109724
7 | 24:23.00 | 5:23.67 | 109725 | 134016
8 | 29:46.67 | 2:36.53 | 134017 | 145769
9 | 32:23.45 | 4:01.15 | 145770 | 163859
10 | 36:24.60 | 5:57.57 | 163860 | 190691
11 | 42:22.42 | 6:04.05 | 190692 | 217996
12 | 48:26.47 | 4:14.30 | 217997 | 237076
13 | 52:41.02 | 3:41.65 | 237077 | 253716
14 | 56:22.67 | 5:38.45 | 253717 | 279111
15 | 62:01.37 | 5:34.50 | 279112 | 304211
16 | 67:36.12 | 5:14.18 | 304212 | 327779
17 | 72:50.30 | 6:03.15 | 327780 | 355019
Range status and errors
Selected range
Filename C:\Documents and Settings\User.X-TEAM\Мои документы\Lebendige Vergangenheit - Boris Christoff II.wav
Peak level 99.9 %
Extraction speed 8.9 X
Range quality 100.0 %
Test CRC 75514559
Copy CRC 75514559
Copy OK
No errors occurred
AccurateRip summary
Track 1 accurately ripped (confidence 1) [CB7EF22E] (AR v1)
Track 2 accurately ripped (confidence 1) [EDA979B6] (AR v1)
Track 3 accurately ripped (confidence 1) [E2EEF227] (AR v1)
Track 4 accurately ripped (confidence 1) [3D5250FB] (AR v1)
Track 5 accurately ripped (confidence 1) [D5F1728E] (AR v1)
Track 6 accurately ripped (confidence 1) [4FB15051] (AR v1)
Track 7 accurately ripped (confidence 1) [3B9A2EA7] (AR v1)
Track 8 accurately ripped (confidence 1) [E4D6706A] (AR v1)
Track 9 accurately ripped (confidence 1) [D2C27BED] (AR v1)
Track 10 accurately ripped (confidence 1) [7ECB7F6C] (AR v1)
Track 11 accurately ripped (confidence 1) [73BB198F] (AR v1)
Track 12 accurately ripped (confidence 1) [C4AA5B0C] (AR v1)
Track 13 accurately ripped (confidence 1) [97BFCCC7] (AR v1)
Track 14 accurately ripped (confidence 1) [57CD2BEA] (AR v1)
Track 15 accurately ripped (confidence 1) [4816E357] (AR v1)
Track 16 accurately ripped (confidence 1) [CAC9F81B] (AR v1)
Track 17 accurately ripped (confidence 1) [D7637567] (AR v1)
All tracks accurately ripped
End of status report
==== Log checksum C60FC3ABFC0C757930A75AA6C00E1EF2B4A2805D0AE3590047333281A61BFC35 ====

Содержание индексной карты (.CUE)

REM GENRE Vocal
REM DATE 2008
REM DISCID FB127D11
REM COMMENT ExactAudioCopy v1.0b3
PERFORMER "Boris Christoff"
TITLE "Lebendige Vergangenheit - Boris Christoff III"
FILE "Lebendige Vergangenheit - Boris Christoff III.flac" WAVE
TRACK 01 AUDIO
TITLE "Serov - Shrove Tuesday"
PERFORMER "Boris Christoff, Feodor Potojinsky Russian Choir"
FLAGS DCP
INDEX 01 00:00:00
TRACK 02 AUDIO
TITLE "Traditional arr. Potojinsky - Song of the luberjacks"
PERFORMER "Boris Christoff, Feodor Potojinsky Russian Choir"
FLAGS DCP
INDEX 00 04:35:07
INDEX 01 04:39:50
TRACK 03 AUDIO
TITLE "Traditional arr. Potojinsky - The Bandore"
PERFORMER "Boris Christoff, Feodor Potojinsky Russian Choir"
FLAGS DCP
INDEX 00 09:34:52
INDEX 01 09:39:20
TRACK 04 AUDIO
TITLE "Traditional arr. Labinsky-Tschernoyarov - Down Peterskaya Street"
PERFORMER "Boris Christoff, Feodor Potojinsky Russian Choir"
FLAGS DCP
INDEX 00 13:03:35
INDEX 01 13:08:00
TRACK 05 AUDIO
TITLE "Traditional arr. Alexandrov - Going down the Volga"
PERFORMER "Boris Christoff, Feodor Potojinsky Russian Choir"
FLAGS DCP
INDEX 00 15:15:37
INDEX 01 15:20:05
TRACK 06 AUDIO
TITLE "Traditional arr. Potojinsky - The lonely autumn night"
PERFORMER "Boris Christoff, Feodor Potojinsky Russian Choir"
FLAGS DCP
INDEX 00 18:53:72
INDEX 01 18:58:37
TRACK 07 AUDIO
TITLE "Znamenny Chant - Psalm 137"
PERFORMER "Boris Christoff, Feodor Potojinsky Russian Choir"
FLAGS DCP
INDEX 00 24:17:50
INDEX 01 24:23:00
TRACK 08 AUDIO
TITLE "Strokine - Prayer to St. Simeon"
PERFORMER "Boris Christoff, Feodor Potojinsky Russian Choir"
FLAGS DCP
INDEX 00 29:42:22
INDEX 01 29:46:67
TRACK 09 AUDIO
TITLE "Tschesnokov - Lord have mercy on our people"
PERFORMER "Boris Christoff, Feodor Potojinsky Russian Choir"
FLAGS DCP
INDEX 00 32:19:05
INDEX 01 32:23:45
TRACK 10 AUDIO
TITLE "Sibirean arr. Potojinsky - The song of the twelve robbers"
PERFORMER "Boris Christoff, Feodor Potojinsky Russian Choir"
FLAGS DCP
INDEX 00 36:20:15
INDEX 01 36:24:60
TRACK 11 AUDIO
TITLE "Gretschaninov - Litany"
PERFORMER "Boris Christoff, Feodor Potojinsky Russian Choir"
FLAGS DCP
INDEX 00 42:17:40
INDEX 01 42:22:42
TRACK 12 AUDIO
TITLE "Traditional - Siberian prisoner's song"
PERFORMER "Boris Christoff, Gerald Moore"
FLAGS DCP
INDEX 00 48:20:05
INDEX 01 48:26:47
TRACK 13 AUDIO
TITLE "Moussorgsky - Sadly rustled the leaves"
PERFORMER "Boris Christoff, Gerald Moore"
FLAGS DCP
INDEX 00 52:36:34
INDEX 01 52:41:02
TRACK 14 AUDIO
TITLE "Moussorgsky - Songs and Dances of Death: I. Trepak"
PERFORMER "Boris Christoff, Orchestre National de la Radiodiffusion Francaise - G.Tzipine"
FLAGS DCP
INDEX 00 56:17:27
INDEX 01 56:22:67
TRACK 15 AUDIO
TITLE "II. Cradle Song"
PERFORMER "Boris Christoff, Orchestre National de la Radiodiffusion Francaise - G.Tzipine"
FLAGS DCP
INDEX 00 61:55:67
INDEX 01 62:01:37
TRACK 16 AUDIO
TITLE "III. Serenade"
PERFORMER "Boris Christoff, Orchestre National de la Radiodiffusion Francaise - G.Tzipine"
FLAGS DCP
INDEX 00 67:30:47
INDEX 01 67:36:12
TRACK 17 AUDIO
TITLE "IV. The Warrior Captain"
PERFORMER "Boris Christoff, Orchestre National de la Radiodiffusion Francaise - G.Tzipine"
FLAGS DCP
INDEX 00 72:44:65
INDEX 01 72:50:30
-



Показать сообщения:    

Текущее время: 03-Дек 20:43

Часовой пояс: UTC + 3


Вы не можете начинать темы
Вы не можете отвечать на сообщения
Вы не можете редактировать свои сообщения
Вы не можете удалять свои сообщения
Вы не можете голосовать в опросах
Вы не можете прикреплять файлы к сообщениям
Вы не можете скачивать файлы