(Classical, Choral) Bach - Motetten (ARSYS, Pierre Cao) - 2002, FLAC (tracks+.cue), lossless


Статистика раздачи [Обновить пиров]
Размер:  337 MB   |    Зарегистрирован:  8 месяцев 21 день   |    Скачан:  0 раз

Полного источника не было: Никогда

Личеров:  45  [  0 KB/s  ]   Подробная статистика пиров
 
   
 
 
 

[Цитировать]

Bach - Motetten
Жанр: Classical, Choral
Страна-производитель диска: France
Год издания диска: 2002
Издатель (лейбл): Ambroisie
Номер по каталогу: AMB 9917
Аудиокодек: FLAC
Тип рипа: tracks+.cue
Битрейт аудио: lossless
Продолжительность: 73.33
Источник: собственный рип
Наличие сканов в содержимом раздачи: да
Исполнители: ARSYS, Pierre Cao

Треклист:

01-03. Singet dem Herrn ein neues Lied BWV 225
04-06. Der Geist hilft unsrer Schwachheit auf BWV 226
07-18. Jesu, meine Freude BWV 227
19. Fürchte dich nicht, ich bin bei dir BWV 228
20-22. Komm, Jesu, komm BWV 229
23. Lobet den Herrn, alle Heiden BWV 230
Total 73.33

Лог создания рипа:

Exact Audio Copy V0.99 prebeta 5 from 4. May 2009
EAC extraction logfile from 16. June 2011, 1:31
Arsys; Pierre Cao; Les Basses Reunies / Motetten Bach
Used drive : _NEC DVD_RW ND-3570A Adapter: 3 ID: 1
Read mode : Secure
Utilize accurate stream : Yes
Defeat audio cache : Yes
Make use of C2 pointers : No
Read offset correction : 48
Overread into Lead-In and Lead-Out : No
Fill up missing offset samples with silence : Yes
Delete leading and trailing silent blocks : No
Null samples used in CRC calculations : Yes
Used interface : Installed external ASPI interface
Gap handling : Appended to previous track
Used output format : User Defined Encoder
Selected bitrate : 128 kBit/s
Quality : High
Add ID3 tag : No
Command line compressor : C:\Program Files\Exact Audio Copy\Flac\flac.exe
Additional command line options : -8 -V -T "ARTIST=%a" -T "TITLE=%t" -T "ALBUM=%g" -T "DATE=%y" -T "TRACKNUMBER=%n" -T "GENRE=%m" -T "COMMENT=EAC FLAC -8" %s
TOC of the extracted CD
Track | Start | Length | Start sector | End sector
---------------------------------------------------------
1 | 0:00.00 | 5:07.47 | 0 | 23071
2 | 5:07.47 | 4:53.56 | 23072 | 45102
3 | 10:01.28 | 4:13.02 | 45103 | 64079
4 | 14:14.30 | 4:08.25 | 64080 | 82704
5 | 18:22.55 | 2:33.59 | 82705 | 94238
6 | 20:56.39 | 1:58.41 | 94239 | 103129
7 | 22:55.05 | 1:31.44 | 103130 | 109998
8 | 24:26.49 | 3:24.12 | 109999 | 125310
9 | 27:50.61 | 1:21.12 | 125311 | 131397
10 | 29:11.73 | 1:07.28 | 131398 | 136450
11 | 30:19.26 | 2:41.24 | 136451 | 148549
12 | 33:00.50 | 2:17.58 | 148550 | 158882
13 | 35:18.33 | 0:53.33 | 158883 | 162890
14 | 36:11.66 | 1:22.11 | 162891 | 169051
15 | 37:34.02 | 2:12.12 | 169052 | 178963
16 | 39:46.14 | 4:08.66 | 178964 | 197629
17 | 43:55.05 | 1:42.73 | 197630 | 205352
18 | 45:38.03 | 1:48.74 | 205353 | 213526
19 | 47:27.02 | 9:17.01 | 213527 | 255302
20 | 56:44.03 | 4:13.60 | 255303 | 274337
21 | 60:57.63 | 4:21.05 | 274338 | 293917
22 | 65:18.68 | 1:32.57 | 293918 | 300874
23 | 66:51.50 | 6:42.24 | 300875 | 331048
Track 1
Filename D:\Мои документы\Exact Audio Copy\Bach - Motetten - Cao\01 - BWW 225; Singet dem Herrn ein neues Lied.wav
Pre-gap length 0:00:02.00
Peak level 65.8 %
Track quality 100.0 %
Test CRC ACBE55D7
Copy CRC ACBE55D7
Track not present in AccurateRip database
Copy OK
Track 2
Filename D:\Мои документы\Exact Audio Copy\Bach - Motetten - Cao\02 - BWW 225; Wie sich ein Vat'r Erbamet.wav
Peak level 50.6 %
Track quality 100.0 %
Test CRC 4AE014E3
Copy CRC 4AE014E3
Track not present in AccurateRip database
Copy OK
Track 3
Filename D:\Мои документы\Exact Audio Copy\Bach - Motetten - Cao\03 - BWW 225; Lobet den Herrn seinen Taten.wav
Peak level 65.8 %
Track quality 99.9 %
Test CRC 3390F743
Copy CRC 3390F743
Track not present in AccurateRip database
Copy OK
Track 4
Filename D:\Мои документы\Exact Audio Copy\Bach - Motetten - Cao\04 - BWW 226; Der geist Hilft unsere Schwachheit auf.wav
Pre-gap length 0:00:09.14
Peak level 49.6 %
Track quality 100.0 %
Test CRC 179D986E
Copy CRC 179D986E
Track not present in AccurateRip database
Copy OK
Track 5
Filename D:\Мои документы\Exact Audio Copy\Bach - Motetten - Cao\05 - BWW 226; Der aber die Herzen forchet.wav
Peak level 55.8 %
Track quality 100.0 %
Test CRC E1E85168
Copy CRC E1E85168
Track not present in AccurateRip database
Copy OK
Track 6
Filename D:\Мои документы\Exact Audio Copy\Bach - Motetten - Cao\06 - BWW 226; Du heilige Brunst.wav
Peak level 93.1 %
Track quality 99.9 %
Test CRC C131C905
Copy CRC C131C905
Track not present in AccurateRip database
Copy OK
Track 7
Filename D:\Мои документы\Exact Audio Copy\Bach - Motetten - Cao\07 - BWW 227; Jesu mine Freunde.wav
Pre-gap length 0:00:07.86
Peak level 43.8 %
Track quality 100.0 %
Test CRC 394FCBFF
Copy CRC 394FCBFF
Track not present in AccurateRip database
Copy OK
Track 8
Filename D:\Мои документы\Exact Audio Copy\Bach - Motetten - Cao\08 - BWW 227; Ein ist nun nichts Verdmmliches an denen.wav
Peak level 42.8 %
Track quality 100.0 %
Test CRC 637BB07D
Copy CRC 637BB07D
Track not present in AccurateRip database
Copy OK
Track 9
Filename D:\Мои документы\Exact Audio Copy\Bach - Motetten - Cao\09 - BWW 227; Unter deinen Schirmen.wav
Peak level 42.3 %
Track quality 100.0 %
Test CRC 2D206CC8
Copy CRC 2D206CC8
Track not present in AccurateRip database
Copy OK
Track 10
Filename D:\Мои документы\Exact Audio Copy\Bach - Motetten - Cao\10 - BWW 227; Denn Gesetz des Geistes.wav
Peak level 42.2 %
Track quality 100.0 %
Test CRC A13F6AAE
Copy CRC A13F6AAE
Track not present in AccurateRip database
Copy OK
Track 11
Filename D:\Мои документы\Exact Audio Copy\Bach - Motetten - Cao\11 - BWW 227; Trotz dem alten Drachen.wav
Peak level 70.2 %
Track quality 100.0 %
Test CRC CE1819F1
Copy CRC CE1819F1
Track not present in AccurateRip database
Copy OK
Track 12
Filename D:\Мои документы\Exact Audio Copy\Bach - Motetten - Cao\12 - BWW 227; Ihr aber sied nich fleischlich sondern geistlich.wav
Peak level 45.1 %
Track quality 100.0 %
Test CRC 9C909371
Copy CRC 9C909371
Track not present in AccurateRip database
Copy OK
Track 13
Filename D:\Мои документы\Exact Audio Copy\Bach - Motetten - Cao\13 - BWW 227; Wer baer Chrisi Geist nich that.wav
Peak level 65.2 %
Track quality 99.8 %
Test CRC 478FEC87
Copy CRC 478FEC87
Track not present in AccurateRip database
Copy OK
Track 14
Filename D:\Мои документы\Exact Audio Copy\Bach - Motetten - Cao\14 - BWW 227; Weg mit alle Schatzen.wav
Peak level 58.6 %
Track quality 100.0 %
Test CRC C27F59E6
Copy CRC C27F59E6
Track not present in AccurateRip database
Copy OK
Track 15
Filename D:\Мои документы\Exact Audio Copy\Bach - Motetten - Cao\15 - BWW 227; So aber Christus in euch.wav
Peak level 24.4 %
Track quality 99.9 %
Test CRC F5F51252
Copy CRC F5F51252
Track not present in AccurateRip database
Copy OK
Track 16
Filename D:\Мои документы\Exact Audio Copy\Bach - Motetten - Cao\16 - BWW 227; Gute Nach, O Wesen.wav
Peak level 33.2 %
Track quality 100.0 %
Test CRC AE471CA8
Copy CRC AE471CA8
Track not present in AccurateRip database
Copy OK
Track 17
Filename D:\Мои документы\Exact Audio Copy\Bach - Motetten - Cao\17 - BWW 227; So nun der Geist.wav
Peak level 53.3 %
Track quality 100.0 %
Test CRC E5333335
Copy CRC E5333335
Track not present in AccurateRip database
Copy OK
Track 18
Filename D:\Мои документы\Exact Audio Copy\Bach - Motetten - Cao\18 - BWW 227; Weicht ihr Trauergeister.wav
Peak level 34.7 %
Track quality 100.0 %
Test CRC CE54FED4
Copy CRC CE54FED4
Track not present in AccurateRip database
Copy OK
Track 19
Filename D:\Мои документы\Exact Audio Copy\Bach - Motetten - Cao\19 - BWW 228; Furchte dich nicht, ich bin bei dit.wav
Pre-gap length 0:00:09.25
Peak level 81.8 %
Track quality 100.0 %
Test CRC A4BB8D8D
Copy CRC A4BB8D8D
Track not present in AccurateRip database
Copy OK
Track 20
Filename D:\Мои документы\Exact Audio Copy\Bach - Motetten - Cao\20 - BWW 229; Komm, Jesu, komm.wav
Pre-gap length 0:00:08.86
Peak level 35.6 %
Track quality 100.0 %
Test CRC 3F78D135
Copy CRC 3F78D135
Track not present in AccurateRip database
Copy OK
Track 21
Filename D:\Мои документы\Exact Audio Copy\Bach - Motetten - Cao\21 - BWW 229; Du bist der rechte weg.wav
Peak level 44.9 %
Track quality 100.0 %
Test CRC 5B87CF2C
Copy CRC 5B87CF2C
Track not present in AccurateRip database
Copy OK
Track 22
Filename D:\Мои документы\Exact Audio Copy\Bach - Motetten - Cao\22 - BWW 229; Drauf schliesich mich.wav
Peak level 66.7 %
Track quality 100.0 %
Test CRC 1943E3AE
Copy CRC 1943E3AE
Track not present in AccurateRip database
Copy OK
Track 23
Filename D:\Мои документы\Exact Audio Copy\Bach - Motetten - Cao\23 - BWW 230; Lobet den Herrn, alle heiden.wav
Pre-gap length 0:00:09.50
Peak level 69.1 %
Track quality 100.0 %
Test CRC 3BB31F08
Copy CRC 3BB31F08
Track not present in AccurateRip database
Copy OK
None of the tracks are present in the AccurateRip database
No errors occurred
End of status report

Содержание индексной карты (.CUE):

REM GENRE Classical
REM DATE 2002
REM DISCID 4C113D17
REM COMMENT "ExactAudioCopy v0.99pb5"
PERFORMER "Arsys; Pierre Cao; Les Basses Reunies"
TITLE "Motetten Bach"
FILE "01 - BWW 225; Singet dem Herrn ein neues Lied.wav" WAVE
TRACK 01 AUDIO
TITLE "BWW 225; Singet dem Herrn ein neues Lied"
PERFORMER "Arsys; Pierre Cao; Les Basses Reunies"
INDEX 01 00:00:00
FILE "02 - BWW 225; Wie sich ein Vat'r Erbamet.wav" WAVE
TRACK 02 AUDIO
TITLE "BWW 225; Wie sich ein Vat'r Erbamet"
PERFORMER "Arsys; Pierre Cao; Les Basses Reunies"
INDEX 01 00:00:00
FILE "03 - BWW 225; Lobet den Herrn seinen Taten.wav" WAVE
TRACK 03 AUDIO
TITLE "BWW 225; Lobet den Herrn seinen Taten"
PERFORMER "Arsys; Pierre Cao; Les Basses Reunies"
INDEX 01 00:00:00
TRACK 04 AUDIO
TITLE "BWW 226; Der geist Hilft unsere Schwachheit auf"
PERFORMER "Arsys; Pierre Cao; Les Basses Reunies"
INDEX 00 04:03:66
FILE "04 - BWW 226; Der geist Hilft unsere Schwachheit auf.wav" WAVE
INDEX 01 00:00:00
FILE "05 - BWW 226; Der aber die Herzen forchet.wav" WAVE
TRACK 05 AUDIO
TITLE "BWW 226; Der aber die Herzen forchet"
PERFORMER "Arsys; Pierre Cao; Les Basses Reunies"
INDEX 01 00:00:00
FILE "06 - BWW 226; Du heilige Brunst.wav" WAVE
TRACK 06 AUDIO
TITLE "BWW 226; Du heilige Brunst"
PERFORMER "Arsys; Pierre Cao; Les Basses Reunies"
INDEX 01 00:00:00
TRACK 07 AUDIO
TITLE "BWW 227; Jesu mine Freunde"
PERFORMER "Arsys; Pierre Cao; Les Basses Reunies"
INDEX 00 01:50:51
FILE "07 - BWW 227; Jesu mine Freunde.wav" WAVE
INDEX 01 00:00:00
FILE "08 - BWW 227; Ein ist nun nichts Verdmmliches an denen.wav" WAVE
TRACK 08 AUDIO
TITLE "BWW 227; Ein ist nun nichts Verdmmliches an denen"
PERFORMER "Arsys; Pierre Cao; Les Basses Reunies"
INDEX 01 00:00:00
FILE "09 - BWW 227; Unter deinen Schirmen.wav" WAVE
TRACK 09 AUDIO
TITLE "BWW 227; Unter deinen Schirmen"
PERFORMER "Arsys; Pierre Cao; Les Basses Reunies"
INDEX 01 00:00:00
FILE "10 - BWW 227; Denn Gesetz des Geistes.wav" WAVE
TRACK 10 AUDIO
TITLE "BWW 227; Denn Gesetz des Geistes"
PERFORMER "Arsys; Pierre Cao; Les Basses Reunies"
INDEX 01 00:00:00
FILE "11 - BWW 227; Trotz dem alten Drachen.wav" WAVE
TRACK 11 AUDIO
TITLE "BWW 227; Trotz dem alten Drachen"
PERFORMER "Arsys; Pierre Cao; Les Basses Reunies"
INDEX 01 00:00:00
FILE "12 - BWW 227; Ihr aber sied nich fleischlich sondern geistlich.wav" WAVE
TRACK 12 AUDIO
TITLE "BWW 227; Ihr aber sied nich fleischlich sondern geistlich"
PERFORMER "Arsys; Pierre Cao; Les Basses Reunies"
INDEX 01 00:00:00
FILE "13 - BWW 227; Wer baer Chrisi Geist nich that.wav" WAVE
TRACK 13 AUDIO
TITLE "BWW 227; Wer baer Chrisi Geist nich that"
PERFORMER "Arsys; Pierre Cao; Les Basses Reunies"
INDEX 01 00:00:00
FILE "14 - BWW 227; Weg mit alle Schatzen.wav" WAVE
TRACK 14 AUDIO
TITLE "BWW 227; Weg mit alle Schatzen"
PERFORMER "Arsys; Pierre Cao; Les Basses Reunies"
INDEX 01 00:00:00
FILE "15 - BWW 227; So aber Christus in euch.wav" WAVE
TRACK 15 AUDIO
TITLE "BWW 227; So aber Christus in euch"
PERFORMER "Arsys; Pierre Cao; Les Basses Reunies"
INDEX 01 00:00:00
FILE "16 - BWW 227; Gute Nach, O Wesen.wav" WAVE
TRACK 16 AUDIO
TITLE "BWW 227; Gute Nach, O Wesen"
PERFORMER "Arsys; Pierre Cao; Les Basses Reunies"
INDEX 01 00:00:00
FILE "17 - BWW 227; So nun der Geist.wav" WAVE
TRACK 17 AUDIO
TITLE "BWW 227; So nun der Geist"
PERFORMER "Arsys; Pierre Cao; Les Basses Reunies"
INDEX 01 00:00:00
FILE "18 - BWW 227; Weicht ihr Trauergeister.wav" WAVE
TRACK 18 AUDIO
TITLE "BWW 227; Weicht ihr Trauergeister"
PERFORMER "Arsys; Pierre Cao; Les Basses Reunies"
INDEX 01 00:00:00
TRACK 19 AUDIO
TITLE "BWW 228; Furchte dich nicht, ich bin bei dit"
PERFORMER "Arsys; Pierre Cao; Les Basses Reunies"
INDEX 00 01:39:55
FILE "19 - BWW 228; Furchte dich nicht, ich bin bei dit.wav" WAVE
INDEX 01 00:00:00
TRACK 20 AUDIO
TITLE "BWW 229; Komm, Jesu, komm"
PERFORMER "Arsys; Pierre Cao; Les Basses Reunies"
INDEX 00 09:08:11
FILE "20 - BWW 229; Komm, Jesu, komm.wav" WAVE
INDEX 01 00:00:00
FILE "21 - BWW 229; Du bist der rechte weg.wav" WAVE
TRACK 21 AUDIO
TITLE "BWW 229; Du bist der rechte weg"
PERFORMER "Arsys; Pierre Cao; Les Basses Reunies"
INDEX 01 00:00:00
FILE "22 - BWW 229; Drauf schliesich mich.wav" WAVE
TRACK 22 AUDIO
TITLE "BWW 229; Drauf schliesich mich"
PERFORMER "Arsys; Pierre Cao; Les Basses Reunies"
INDEX 01 00:00:00
TRACK 23 AUDIO
TITLE "BWW 230; Lobet den Herrn, alle heiden"
PERFORMER "Arsys; Pierre Cao; Les Basses Reunies"
INDEX 00 01:23:19
FILE "23 - BWW 230; Lobet den Herrn, alle heiden.wav" WAVE
INDEX 01 00:00:00
[teatrix.ru].t20187.torrent 
Торрент: Зарегистрирован [ 2016-03-19 00:44 ] · 25D9CD97144C827EE1EB7183AA59D8D8027D2C1A

Скачать .torrent

Скачать

16 KB

Статус: проверено
Скачан: 0 раз
Размер: 337 MB
terms.php



Быстрый ответ

Имя:

      
Для отправки сообщений необходимо включить JavaScript
Показать сообщения:    

Текущее время: 09-Дек 14:42

Часовой пояс: UTC + 3


Вы можете начинать темы
Вы можете отвечать на сообщения
Вы не можете редактировать свои сообщения
Вы не можете удалять свои сообщения
Вы не можете голосовать в опросах
Вы не можете прикреплять файлы к сообщениям
Вы можете скачивать файлы