Прощание с Песняром. Владимир Мулявин (Сергей Шустицкий, Ольга Молчанова) [2007, биография, IPTVRip]


Статистика раздачи [Обновить пиров]
Размер:  572 MB   |    Зарегистрирован:  8 месяцев 19 дней   |    Скачан:  0 раз

Полного источника не было: Никогда

 
   
 
 
 

[Цитировать]

Прощание с Песняром. Владимир Мулявин
Дата/Год выпуска: 2007
Страна: Россия
Жанр: биография
Продолжительность: 00:46:06
Перевод: Не требуется
Русские субтитры: нет
Оригинальная аудиодорожка: русский
Режиссер: Сергей Шустицкий, Ольга Молчанова
Телеканал: ДовериеОписание: В центре фильма - драматическая судьба одного из талантливейших музыкантов второй половины ХХ века Владимира Мулявина, создателя ансамбля "Песняры" - легендарного коллектива, получившего в 70-е годы статус "национального достояния" одной из республик Советского Союза. В 1965 году армейская служба свела четверых музыкантов, мечтавших поднять песенный фольклор на небывалые высоты. Несмотря на строгие запреты и унизительные разносы чиновников, "Песняры" достигли невероятной популярности. Руководителя и артистов ансамбля знала в лицо вся страна. Они стали первой советской группой, которая прорвалась в США. Успешная творческая жизнь, гастрольные выступления в 60 странах мира...Сэмпл: https://www.sendspace.com/file/qfi3st
качество: IPTVRip (исходник в формате MPEG-2)
формат: AVI
Видео: Xvid 704x528 (4:3) 25fps ~1536kbps
Аудио: MP3 48000Hz stereo (2ch) 192kbps

MediaInfo

General
Complete name : I:\Мои раздачи\Прощание с Песняром. Владимир Мулявин.avi
Format : AVI
Format/Info : Audio Video Interleave
File size : 572 MiB
Duration : 46mn 6s
Overall bit rate : 1 736 Kbps
Video
ID : 0
Format : MPEG-4 Visual
Format profile : Advanced Simple@L5
Format settings, BVOP : Yes
Format settings, QPel : No
Format settings, GMC : No warppoints
Format settings, Matrix : Default (H.263)
Codec ID : XVID
Codec ID/Hint : XviD
Duration : 46mn 6s
Bit rate : 1 534 Kbps
Width : 704 pixels
Height : 528 pixels
Display aspect ratio : 4:3
Frame rate : 25.000 fps
Color space : YUV
Chroma subsampling : 4:2:0
Bit depth : 8 bits
Scan type : Progressive
Compression mode : Lossy
Bits/(Pixel*Frame) : 0.165
Stream size : 506 MiB (88%)
Writing library : XviD 64
Audio
ID : 1
Format : MPEG Audio
Format version : Version 1
Format profile : Layer 3
Mode : Joint stereo
Mode extension : MS Stereo
Codec ID : 55
Codec ID/Hint : MP3
Duration : 46mn 6s
Bit rate mode : Constant
Bit rate : 192 Kbps
Channel(s) : 2 channels
Sampling rate : 48.0 KHz
Compression mode : Lossy
Stream size : 63.3 MiB (11%)
Alignment : Split accross interleaves
Interleave, duration : 40 ms (1.00 video frame)
Interleave, preload duration : 500 ms

Скриншоты

Сравнение скриншотов

сравнение с раздачей: http://teatrix.ru/viewtopic.php?t=413500
http://screenshotcomparison.com/comparison/111384
на третьем скриншоте хорошо видно, что у релиза-конкурента неестественные цвета и сильно обрезана картинка + там меньше разрешение (512x384).
[teatrix.ru].t20188.torrent 
Торрент: Зарегистрирован [ 2016-03-19 00:55 ] · 92AAE1FC287FA172E9AFC6B2A3462BAEF36073DB

Скачать .torrent

Скачать

12 KB

Статус: проверено
Скачан: 0 раз
Размер: 572 MB
terms.php



Быстрый ответ

Имя:

      
Для отправки сообщений необходимо включить JavaScript
Показать сообщения:    

Текущее время: 07-Дек 23:19

Часовой пояс: UTC + 3


Вы можете начинать темы
Вы можете отвечать на сообщения
Вы не можете редактировать свои сообщения
Вы не можете удалять свои сообщения
Вы не можете голосовать в опросах
Вы не можете прикреплять файлы к сообщениям
Вы можете скачивать файлы