[TR24][SM][OF] Clara and Robert Schumann - Portraits: Songs (Miah Persson & Joseph Breinl) - 2011 (Classical)


Статистика раздачи [Обновить пиров]
Размер:  925 MB   |    Зарегистрирован:  8 месяцев 21 день   |    Скачан:  0 раз

Полного источника не было: Никогда

Личеров:  23  [  0 KB/s  ]   Подробная статистика пиров
 
   
 
 
 

[Цитировать]

Robert Schumann (1810–56)
Clara Schumann (1819–96)


Формат записи/Источник записи: [TR24][SM][OF]
Наличие водяных знаков: Нет
Издание: BIS-SACD-1834
Год издания/переиздания диска: 2011
Жанр: Classical
Издатель(лейбл): BIS Records
Продолжительность: 61:26
Наличие сканов в содержимом раздачи: Да
Контейнер: FLAC (*.flac)
Тип рипа: tracks
Разрядность: 24/88,2
Формат: WAV (flac.ape.wv)
Количество каналов: 2.0
Miah Persson soprano
Joseph Breinl piano
http://www.eclassical.com/performers/persson-miah/portraits-songs-by-clara-and-robert-schumann.html

Треклист

SCHUMANN, Robert (1810–56)
from Myrthen, Op. 25 (1840)
01 - 1. Widmung (text: Friedrich Rückert). Innig, lebhaft 2'03
02 - 3. Der Nussbaum (text: Julius Mosen). Allegretto 3'01
03 - 7. Die Lotusblume (text: Heinrich Heine). Ziemlich langsam 1'44
04 - 9. Lied der Suleika (text: Marianne von Willemer). Ziemlich langsam 2'29
05 - 11. Lied der Braut Nr. 1 (text: Friedrich Rückert). Sehr innig 2'28
06 - 12. Lied der Braut Nr. 2 (text: Friedrich Rückert). Larghetto 1'14
SCHUMANN, Clara (1819–96)
from 6 Lieder, Op. 13
07 - 1. Ich stand in dunklen Träumen (1840) (text: Heinrich Heine). Ziemlich langsam 2'11
08 - 3. Liebeszauber (1842) (text: Emanuel Geibel). Bewegt 1'53
09 - 5. Ich hab’ in deinem Auge (1843) (text: Friedrich Rückert). Langsam 1'53
10 - Lorelei (1843) (text: Heinrich Heine). Schnell 2'10
SCHUMANN, Robert
Gedichte der Königin Maria Stuart, Op. 135 (1852) 8'34
11 - 1. Abschied von Frankreich. Ziemlich langsam 1'34
12 - 2. Nach der Geburt ihres Sohnes. Langsam 1'27
13 - 3. An die Königin Elisabeth. Leidenschaftlich 1'26
14 - 4. Abschied von der Welt. Langsam 2'26
15 - 5. Gebet. (No tempo marking) 1'25
16 - Volksliedchen, Op. 51 No.2 (1840) (text: Friedrich Rückert). Einfach 1'02
17 - Der Himmel hat eine Träne geweint, Op. 37 No. 1 (1840) 1'45
(text: Friedrich Rückert). Einfach
SCHUMANN, Clara
3 Lieder, Op. 12 (1841) (texts: Friedrich Rückert) 6'47
18 - Er ist gekommen in Sturm und Regen. Leidenschaftlich 2'14
19 - Warum willst du and’re fragen. Andante 2'10
20 - Liebst du um Schönheit. Nicht zu langsam 2'09
SCHUMANN, Robert
Frauenliebe und Leben, Op. 42 (1840) (texts: Adelbert von Chamisso) 20'35
21 - 1. Seit ich ihn gesehen. Larghetto 2'15
22 - 2. Er, der Herrlichste von allen. Innig, lebhaft 2'45
23 - 3. Ich kann’s nicht fassen, nicht glauben. Mit Leidenschaft 1'43
24 - 4. Du Ring an meinem Finger. Innig 2'36
25 - 5. Helft mir, ihr Schwestern. Ziemlich schnell 1'42
26 - 6. Süßer Freund, du blickest. Langsam, mit innigen Ausdruck 3'55
27 - 7. An meinem Herzen, an meiner Brust. Fröhlich, innig 1'19
28 - 8. Nun hast du mir den ersten Schmerz getan. Adagio 3'54

Dynamic Range Meter

foobar2000 1.2.6 / Dynamic Range Meter 1.1.1
log date: 2015-01-23 23:57:01
--------------------------------------------------------------------------------
Analyzed: Miah Persson, Joseph Breinl / Portraits: songs by Clara and Robert Schumann
--------------------------------------------------------------------------------
DR Peak RMS Duration Track
--------------------------------------------------------------------------------
DR14 -3.85 dB -22.54 dB 2:08 01-Six Songs from Myrthen, Op. 25 - 1. Widmung. Innig, lebhaft
DR16 -6.78 dB -27.86 dB 3:05 02-Six Songs from Myrthen, Op. 25 - 3. Der Nussbaum. Allegretto
DR14 -3.16 dB -25.87 dB 1:46 03-Six Songs from Myrthen, Op. 25 - 7. Die Lotusblume. Ziemlich langsam
DR14 -4.28 dB -25.57 dB 2:33 04-Six Songs from Myrthen, Op. 25 - 9. Lied der Suleika. Ziemlich langsam
DR13 -5.40 dB -25.28 dB 2:31 05-Six Songs from Myrthen, Op. 25 - 11. Lied der Braut Nr.1. Sehr innig
DR13 -9.85 dB -28.55 dB 1:22 06-Six Songs from Myrthen, Op. 25 - 12. Lied der Braut Nr.2. Larghetto
DR12 -6.90 dB -28.62 dB 2:16 07-Three Songs from 6 Lieder, Op. 13 - 1. Ich stand in dunklen Träumen. Ziemlich langsam
DR13 -1.13 dB -23.02 dB 1:57 08-Three Songs from 6 Lieder, Op. 13 - 3. Liebeszauber. Bewegt
DR16 -3.02 dB -25.52 dB 1:57 09-Three Songs from 6 Lieder, Op. 13 - 5. Ich hab’ in deinem Auge. Langsam
DR15 -0.01 dB -21.84 dB 2:16 10-Lorelei - Schnell
DR13 -7.15 dB -25.10 dB 1:37 11-Gedichte der Königin Maria Stuart, Op.135 - 1. Abschied von Frankreich. Ziemlich langsam
DR12 -11.88 dB -30.11 dB 1:31 12-Gedichte der Königin Maria Stuart, Op.135 - 2. Nach der Geburt ihres Sohnes. Langsam
DR14 -2.78 dB -21.49 dB 1:30 13-Gedichte der Königin Maria Stuart, Op.135 - 3. An die Königin Elisabeth. Leidenschaftlich
DR15 -4.22 dB -26.92 dB 2:30 14-Gedichte der Königin Maria Stuart, Op.135 - 4. Abschied von der Welt. Langsam
DR13 -5.60 dB -24.37 dB 1:31 15-Gedichte der Königin Maria Stuart, Op.135 - 5. Gebet.
DR14 -4.26 dB -24.59 dB 1:06 16-Volksliedchen, Op.51 No.2 - Einfach
DR12 -4.23 dB -26.66 dB 1:53 17-Der Himmel hat eine Träne geweint, Op.37 No.1 - Einfach
DR13 -3.51 dB -22.89 dB 2:19 18-3 Lieder, Op.12 - Er ist gekommen in Sturm und Regen. Leidenschaftlich
DR12 -8.56 dB -28.53 dB 2:18 19-3 Lieder, Op.12 - Warum willst du and’re fragen. Andante
DR11 -6.22 dB -26.17 dB 2:14 20-3 Lieder, Op.12 - Liebst du um Schönheit. Nicht zu langsam
DR11 -10.61 dB -29.21 dB 2:19 21-Frauenliebe und Leben, Op.42 - 1. Seit ich ihn gesehen. Larghetto
DR13 -4.40 dB -22.38 dB 2:49 22-Frauenliebe und Leben, Op.42 - 2. Er, der Herrlichste von allen. Innig, lebhaft
DR15 -2.10 dB -24.14 dB 1:45 23-Frauenliebe und Leben, Op.42 - 3. Ich kann’s nicht fassen, nicht glauben. Mit Leidenschaft
DR16 -2.87 dB -25.94 dB 2:41 24-Frauenliebe und Leben, Op.42 - 4. Du Ring an meinem Finger. Innig
DR15 -1.76 dB -22.70 dB 1:45 25-Frauenliebe und Leben, Op.42 - 5. Helft mir, ihr Schwestern. Ziemlich schnell
DR15 -4.41 dB -28.12 dB 4:00 26-Frauenliebe und Leben, Op.42 - 6. Süßer Freund, du blickest. Langsam, mit innigen Ausdruck
DR13 -3.91 dB -22.56 dB 1:23 27-Frauenliebe und Leben, Op.42 - 7. An meinem Herzen, an meiner Brust. Fröhlich, innig
DR15 -9.39 dB -31.55 dB 4:24 28-Frauenliebe und Leben, Op.42 - 8. Nun hast du mir den ersten Schmerz getan. Adagio
--------------------------------------------------------------------------------
Number of tracks: 28
Official DR value: DR14
Samplerate: 88200 Hz
Channels: 2
Bits per sample: 24
Bitrate: 1893 kbps
Codec: FLAC
================================================================================
[teatrix.ru].t20190.torrent 
Торрент: Зарегистрирован [ 2016-03-19 00:48 ] · 076C0F88496ADA5A0242C48F37B524F230213E92

Скачать .torrent

Скачать

22 KB

Статус: проверено
Скачан: 0 раз
Размер: 925 MB
terms.php



Быстрый ответ

Имя:

      
Для отправки сообщений необходимо включить JavaScript
Показать сообщения:    

Текущее время: 09-Дек 12:45

Часовой пояс: UTC + 3


Вы можете начинать темы
Вы можете отвечать на сообщения
Вы не можете редактировать свои сообщения
Вы не можете удалять свои сообщения
Вы не можете голосовать в опросах
Вы не можете прикреплять файлы к сообщениям
Вы можете скачивать файлы