(Classical) Handel - Belshazzar - Clayton, Joshua, Hulcup, Davies, Lemalu; Les Arts Florissants, William Christie - 3CD - 2013, FLAC (image+.cue) lossless


Статистика раздачи [Обновить пиров]
Размер:  880 MB   |    Зарегистрирован:  8 месяцев 18 дней   |    Скачан:  0 раз

Полного источника не было: Никогда

 
   
 
 
 

[Цитировать]

Handel - Belshazzar - Clayton, Joshua, Hulcup, Davies, Lemalu; Les Arts Florissants, William Christie
Жанр: Classical
Страна-производитель диска: France
Год издания диска: 2013
Издатель (лейбл): Éditions Arts Florissants
Номер по каталогу: AF.001
Дата записи: 2012
Аудиокодек: FLAC
Тип рипа: image+.cue
Битрейт аудио: lossless
Продолжительность: 166:22
Источник: собственный рип
Наличие сканов в содержимом раздачи: да
Треклист:
George Frideric Handel (1685-1759)
Belshazzar
Oratorio in three acts
1745
CD1 [1] Overture
CD1 [2]-[16] CD2 [1]-[7] Act I
CD2 [8]-[17] CD3 [1]-[2] Act II
CD3 [3]-[12] Act III
Исполнители:
Belshazzar, King of Babylon Allan Clayton
Nitocris, Mother of Belshazzar Rosemary Joshua
Cyrus, Prince of Persia Caitlin Hulcup
Daniel, a Jewish Prophet Iestyn Davies
Gobrias, an Assyrian Nobleman Jonathan Lemalu
Les Arts Florissants
William Christie

Лог создания рипа: CD1

Exact Audio Copy V1.0 beta 3 from 29. August 2011
EAC extraction logfile from 14. November 2014, 0:57
Les Arts Florissants, William Christie / Handel - Belshazzar - CD1
Used drive : HL-DT-STDVDRAM GU70N Adapter: 0 ID: 0
Read mode : Secure
Utilize accurate stream : Yes
Defeat audio cache : Yes
Make use of C2 pointers : No
Read offset correction : 48
Overread into Lead-In and Lead-Out : No
Fill up missing offset samples with silence : Yes
Delete leading and trailing silent blocks : No
Null samples used in CRC calculations : Yes
Used interface : Native Win32 interface for Win NT & 2000
Used output format : User Defined Encoder
Selected bitrate : 128 kBit/s
Quality : High
Add ID3 tag : No
Command line compressor : C:\Program Files (x86)\Exact Audio Copy\Flac\flac.exe
Additional command line options : -V -8 -T "Date=%year%" -T "Genre=%genre%" %source%
TOC of the extracted CD
Track | Start | Length | Start sector | End sector
---------------------------------------------------------
1 | 0:00.00 | 2:40.28 | 0 | 12027
2 | 2:40.28 | 4:28.06 | 12028 | 32133
3 | 7:08.34 | 4:36.67 | 32134 | 52900
4 | 11:45.26 | 1:14.59 | 52901 | 58509
5 | 13:00.10 | 4:58.48 | 58510 | 80907
6 | 17:58.58 | 2:27.52 | 80908 | 91984
7 | 20:26.35 | 1:27.37 | 91985 | 98546
8 | 21:53.72 | 3:57.19 | 98547 | 116340
9 | 25:51.16 | 1:54.31 | 116341 | 124921
10 | 27:45.47 | 3:58.59 | 124922 | 142830
11 | 31:44.31 | 3:47.26 | 142831 | 159881
12 | 35:31.57 | 4:09.23 | 159882 | 178579
13 | 39:41.05 | 3:27.47 | 178580 | 194151
14 | 43:08.52 | 4:53.69 | 194152 | 216195
15 | 48:02.46 | 3:00.55 | 216196 | 229750
16 | 51:03.26 | 4:16.22 | 229751 | 248972
Range status and errors
Selected range
Filename C:\temp\Handel - Belshazzar - Les Arts Florissants, Christie\CD1\Handel - Belshazzar - CD1.wav
Peak level 96.5 %
Extraction speed 5.1 X
Range quality 100.0 %
Test CRC 766B6C14
Copy CRC 766B6C14
Copy OK
No errors occurred
AccurateRip summary
Track 1 accurately ripped (confidence 5) [D5CB5A9E] (AR v2)
Track 2 accurately ripped (confidence 5) [4BC6BEE4] (AR v2)
Track 3 accurately ripped (confidence 5) [90EC27AE] (AR v2)
Track 4 accurately ripped (confidence 5) [9B971D66] (AR v2)
Track 5 accurately ripped (confidence 5) [3BA8420B] (AR v2)
Track 6 accurately ripped (confidence 5) [FEFC6F1D] (AR v2)
Track 7 accurately ripped (confidence 5) [8B5DBC4C] (AR v2)
Track 8 accurately ripped (confidence 5) [D4EF3BBB] (AR v2)
Track 9 accurately ripped (confidence 5) [522C09C4] (AR v2)
Track 10 accurately ripped (confidence 5) [89BA685F] (AR v2)
Track 11 accurately ripped (confidence 5) [8463D534] (AR v2)
Track 12 accurately ripped (confidence 5) [2AFA8C46] (AR v2)
Track 13 accurately ripped (confidence 5) [6C1A625B] (AR v2)
Track 14 accurately ripped (confidence 5) [6BF74367] (AR v2)
Track 15 accurately ripped (confidence 5) [212E0646] (AR v2)
Track 16 accurately ripped (confidence 5) [9C5A69B6] (AR v2)
All tracks accurately ripped
End of status report
==== Log checksum B56A17005077FBFF3A7F280FDB759AE4A9F4F27D84C8582A10C5EF6F2CC404A7 ====

Лог создания рипа: CD2

Exact Audio Copy V1.0 beta 3 from 29. August 2011
EAC extraction logfile from 14. November 2014, 2:07
Les Arts Florissants, William Christie / Handel - Belshazzar - CD2
Used drive : HL-DT-STDVDRAM GU70N Adapter: 0 ID: 0
Read mode : Secure
Utilize accurate stream : Yes
Defeat audio cache : Yes
Make use of C2 pointers : No
Read offset correction : 48
Overread into Lead-In and Lead-Out : No
Fill up missing offset samples with silence : Yes
Delete leading and trailing silent blocks : No
Null samples used in CRC calculations : Yes
Used interface : Native Win32 interface for Win NT & 2000
Used output format : User Defined Encoder
Selected bitrate : 128 kBit/s
Quality : High
Add ID3 tag : No
Command line compressor : C:\Program Files (x86)\Exact Audio Copy\Flac\flac.exe
Additional command line options : -V -8 -T "Date=%year%" -T "Genre=%genre%" %source%
TOC of the extracted CD
Track | Start | Length | Start sector | End sector
---------------------------------------------------------
1 | 0:00.00 | 6:45.06 | 0 | 30380
2 | 6:45.06 | 7:09.41 | 30381 | 62596
3 | 13:54.47 | 1:34.74 | 62597 | 69720
4 | 15:29.46 | 2:32.00 | 69721 | 81120
5 | 18:01.46 | 1:18.19 | 81121 | 86989
6 | 19:19.65 | 4:44.48 | 86990 | 108337
7 | 24:04.38 | 6:08.19 | 108338 | 135956
8 | 30:12.57 | 6:32.56 | 135957 | 165412
9 | 36:45.38 | 6:07.34 | 165413 | 192971
10 | 42:52.72 | 2:52.02 | 192972 | 205873
11 | 45:44.74 | 2:35.17 | 205874 | 217515
12 | 48:20.16 | 2:41.04 | 217516 | 229594
13 | 51:01.20 | 1:45.01 | 229595 | 237470
14 | 52:46.21 | 2:11.57 | 237471 | 247352
15 | 54:58.03 | 2:58.05 | 247353 | 260707
16 | 57:56.08 | 3:53.46 | 260708 | 278228
17 | 61:49.54 | 6:21.49 | 278229 | 306852
Range status and errors
Selected range
Filename C:\temp\Handel - Belshazzar - Les Arts Florissants, Christie\CD2\Handel - Belshazzar - CD2.wav
Peak level 96.5 %
Extraction speed 2.3 X
Range quality 100.0 %
Test CRC 2DD1FBF1
Copy CRC 2DD1FBF1
Copy OK
No errors occurred
AccurateRip summary
Track 1 accurately ripped (confidence 5) [DDAACE57] (AR v2)
Track 2 accurately ripped (confidence 5) [71962505] (AR v2)
Track 3 accurately ripped (confidence 5) [88926E6A] (AR v2)
Track 4 accurately ripped (confidence 5) [7B84FC08] (AR v2)
Track 5 accurately ripped (confidence 5) [A0A821D9] (AR v2)
Track 6 accurately ripped (confidence 5) [C084256F] (AR v2)
Track 7 accurately ripped (confidence 5) [201F385C] (AR v2)
Track 8 accurately ripped (confidence 5) [8BABF4D7] (AR v2)
Track 9 accurately ripped (confidence 5) [0322745F] (AR v2)
Track 10 accurately ripped (confidence 5) [2BA6895A] (AR v2)
Track 11 accurately ripped (confidence 5) [7964C338] (AR v2)
Track 12 accurately ripped (confidence 5) [24DCEAAF] (AR v2)
Track 13 accurately ripped (confidence 5) [53069463] (AR v2)
Track 14 accurately ripped (confidence 5) [7E404E7B] (AR v2)
Track 15 accurately ripped (confidence 5) [90A965E5] (AR v2)
Track 16 accurately ripped (confidence 5) [32F1AA9F] (AR v2)
Track 17 accurately ripped (confidence 5) [75AEBDC7] (AR v2)
All tracks accurately ripped
End of status report
==== Log checksum B11ADBCEA4765BBB137A51A02A8A0437233C79DE21AF74EFDDBA7370D0BCD1B7 ====

Лог создания рипа: CD3

Exact Audio Copy V1.0 beta 3 from 29. August 2011
EAC extraction logfile from 14. November 2014, 8:45
Les Arts Florissants, William Christie / Handel - Belshazzar - CD3
Used drive : HL-DT-STDVDRAM GU70N Adapter: 0 ID: 0
Read mode : Secure
Utilize accurate stream : Yes
Defeat audio cache : Yes
Make use of C2 pointers : No
Read offset correction : 48
Overread into Lead-In and Lead-Out : No
Fill up missing offset samples with silence : Yes
Delete leading and trailing silent blocks : No
Null samples used in CRC calculations : Yes
Used interface : Native Win32 interface for Win NT & 2000
Used output format : User Defined Encoder
Selected bitrate : 128 kBit/s
Quality : High
Add ID3 tag : No
Command line compressor : C:\Program Files (x86)\Exact Audio Copy\Flac\flac.exe
Additional command line options : -V -8 -T "Date=%year%" -T "Genre=%genre%" %source%
TOC of the extracted CD
Track | Start | Length | Start sector | End sector
---------------------------------------------------------
1 | 0:00.00 | 5:16.37 | 0 | 23736
2 | 5:16.37 | 4:56.73 | 23737 | 46009
3 | 10:13.35 | 4:42.01 | 46010 | 67160
4 | 14:55.36 | 3:25.40 | 67161 | 82575
5 | 18:21.01 | 1:28.45 | 82576 | 89220
6 | 19:49.46 | 2:04.69 | 89221 | 98589
7 | 21:54.40 | 2:22.48 | 98590 | 109287
8 | 24:17.13 | 2:20.34 | 109288 | 119821
9 | 26:37.47 | 5:58.10 | 119822 | 146681
10 | 32:35.57 | 1:37.40 | 146682 | 153996
11 | 34:13.22 | 1:37.01 | 153997 | 161272
12 | 35:50.23 | 6:59.55 | 161273 | 192752
Range status and errors
Selected range
Filename C:\temp\Handel - Belshazzar - Les Arts Florissants, Christie\CD3\Handel - Belshazzar - CD3.wav
Peak level 96.5 %
Extraction speed 4.7 X
Range quality 99.9 %
Test CRC 235152B0
Copy CRC 235152B0
Copy OK
No errors occurred
AccurateRip summary
Track 1 accurately ripped (confidence 5) [59E25BB2] (AR v2)
Track 2 accurately ripped (confidence 5) [6226648F] (AR v2)
Track 3 accurately ripped (confidence 5) [2B77D36F] (AR v2)
Track 4 accurately ripped (confidence 5) [5DBACF6A] (AR v2)
Track 5 accurately ripped (confidence 5) [5BEDAE4B] (AR v2)
Track 6 accurately ripped (confidence 5) [F0AFFBC9] (AR v2)
Track 7 accurately ripped (confidence 5) [708BAE64] (AR v2)
Track 8 accurately ripped (confidence 5) [1F54E7F5] (AR v2)
Track 9 accurately ripped (confidence 5) [022CDF9C] (AR v2)
Track 10 accurately ripped (confidence 5) [9DED48F0] (AR v2)
Track 11 accurately ripped (confidence 5) [F9E73544] (AR v2)
Track 12 accurately ripped (confidence 5) [AC683DA3] (AR v2)
All tracks accurately ripped
End of status report
==== Log checksum 01D5E4ADE27A534AC544F890342817CFC00740F2536F985FE695157D1CD50870 ====
[teatrix.ru].t20191.torrent 
Торрент: Зарегистрирован [ 2016-03-19 00:38 ] · 5A1BE3104B64134F6F39DB18BBF9577A702B1E25

Скачать .torrent

Скачать

44 KB

Статус: проверено
Скачан: 0 раз
Размер: 880 MB
terms.php



Быстрый ответ

Имя:

      
Для отправки сообщений необходимо включить JavaScript
Показать сообщения:    

Текущее время: 06-Дек 17:11

Часовой пояс: UTC + 3


Вы можете начинать темы
Вы можете отвечать на сообщения
Вы не можете редактировать свои сообщения
Вы не можете удалять свои сообщения
Вы не можете голосовать в опросах
Вы не можете прикреплять файлы к сообщениям
Вы можете скачивать файлы