Канатоходка / La funambola / La funambule / The Tightrope Walker (Роберто Катани / Roberto Catani) [2002, Италия, сюрреализм, драма, анимация, короткий метр, IPTVRip-AVC]


 

[Цитировать]

Канатоходка
La funambola- Страна: Италия
Жанр: сюрреализм, драма, анимация, короткий метр
Год выпуска: 2002
Продолжительность: 00:05:58
Перевод: Не требуется
Cубтитры: нет
Оригинальная аудиодорожка: музыкальное сопровождение
Режиссер: Роберто Катани / Roberto Catani
В ролях: анимацияОписание: Жизнь молодой женщины ее же собственными глазами: мечты о любви, браке и материнстве разбиваются о реалии жизни. Стоя на краю обрыва судьбы над спокойными водами жизни, она испытывает непреодолимую потребность в независимости…
Доп. информация: Arte
Награды: Специальный приз Hiroshima International Animation Festival 2002; номинация на приз Cartoon d'Or на Cartoon Forum, Europe 2002.

Качество видео: IPTVRip-AVC
Формат видео: MKV
Видео: AVC (H.264), 640x480 (4:3), 25 fps, ~2000 kbps avg, 0.260 bit/pixel
Аудио: AC3, 2 ch, 48 kHz, ~192.00 kbps avg

MediaInfo

Общее
Уникальный идентификатор : 228125899111239408935474224769683506161 (0xAB9F73346F9D34B783988E7030E943F1)
Полное имя : E:\My Torrents 2\[apreder]MINI_MOVIES_09\[apreder]MM_La_funambola(2002)IPTVRip.mkv
Формат : Matroska
Версия формата : Version 2
Размер файла : 93,9 Мбайт
Продолжительность : 5 м. 58 с.
Общий поток : 2197 Кбит/сек
Дата кодирования : UTC 2015-01-24 12:08:20
Программа кодирования : mkvmerge v7.5.0 ('Glass Culture') 64bit built on Jan 4 2015 16:48:44
Библиотека кодирования : libebml v1.3.1 + libmatroska v1.4.2
Видео
Идентификатор : 1
Формат : AVC
Формат/Информация : Advanced Video Codec
Профиль формата : High@L4.1
Параметр CABAC формата : Да
Параметр ReFrames формата : 16 кадров
Идентификатор кодека : V_MPEG4/ISO/AVC
Продолжительность : 5 м. 58 с.
Битрейт : 2000 Кбит/сек
Ширина : 640 пикселей
Высота : 480 пикселей
Соотношение сторон : 4:3
Режим частоты кадров : Постоянный
Частота кадров : 25,000 кадров/сек
Цветовое пространство : YUV
Субдискретизация насыщенности : 4:2:0
Битовая глубина : 8 бит
Тип развёртки : Прогрессивная
Бит/(Пиксели*Кадры) : 0.260
Размер потока : 83,8 Мбайт (89%)
Библиотека кодирования : x264 core 144 r2525 40bb568
Настройки программы : cabac=1 / ref=16 / deblock=1:-1:-1 / analyse=0x3:0x133 / me=umh / subme=10 / psy=1 / psy_rd=1.00:0.15 / mixed_ref=1 / me_range=24 / chroma_me=1 / trellis=2 / 8x8dct=1 / cqm=0 / deadzone=21,11 / fast_pskip=1 / chroma_qp_offset=-3 / threads=6 / lookahead_threads=1 / sliced_threads=0 / nr=0 / decimate=1 / interlaced=0 / bluray_compat=0 / constrained_intra=0 / bframes=8 / b_pyramid=2 / b_adapt=2 / b_bias=0 / direct=3 / weightb=1 / open_gop=0 / weightp=2 / keyint=250 / keyint_min=25 / scenecut=40 / intra_refresh=0 / rc_lookahead=60 / rc=2pass / mbtree=1 / bitrate=2000 / ratetol=1.0 / qcomp=0.60 / qpmin=0 / qpmax=69 / qpstep=4 / cplxblur=20.0 / qblur=0.5 / vbv_maxrate=62500 / vbv_bufsize=78125 / nal_hrd=none / filler=0 / ip_ratio=1.40 / aq=1:1.00
Default : Да
Forced : Нет
Аудио
Идентификатор : 2
Формат : AC-3
Формат/Информация : Audio Coding 3
Расширение режима : CM (complete main)
Параметр Endianness формата : Big
Идентификатор кодека : A_AC3
Продолжительность : 5 м. 58 с.
Вид битрейта : Постоянный
Битрейт : 192 Кбит/сек
Каналы : 2 канала
Расположение каналов : Front: L R
Частота : 48,0 КГц
Битовая глубина : 16 бит
Метод сжатия : С потерями
Размер потока : 8,20 Мбайт (9%)
Default : Да
Forced : Нет

Скриншот c названием фильма

Скриншоты

Резервные скриншоты

-[2'072]



Показать сообщения:    

Текущее время: 09-Дек 08:46

Часовой пояс: UTC + 3


Вы не можете начинать темы
Вы не можете отвечать на сообщения
Вы не можете редактировать свои сообщения
Вы не можете удалять свои сообщения
Вы не можете голосовать в опросах
Вы не можете прикреплять файлы к сообщениям
Вы не можете скачивать файлы