Тайный мир Леди Гага / Lady Gaga's Secret World (Морин Голдторп / Maureen Goldthorpe) [2012, документальный, биографический, SATRip-AVC] DVO (Ред Медиа)


Статистика раздачи [Обновить пиров]
Размер:  704 MB   |    Зарегистрирован:  8 месяцев 18 дней   |    Скачан:  0 раз

Полного источника не было: Никогда

 
   
 
 
 

[Цитировать]

Тайный мир Леди Гага
Lady Gaga's Secret World- Дата/Год выпуска: 2012
Страна: США
Жанр: документальный, биографический
Продолжительность: 00:59:51
Перевод: Профессиональный (двухголосый закадровый)
Доп. инфо о переводе: ТПО "Ред Медиа"
Русские субтитры: нет
Режиссер: Морин Голдторп / Maureen Goldthorpe
Телеканал: STVОписание: Документальный фильм "Тайный мир Леди Гага" покажет историю становления мировой звезды Леди Гага. Это ярчайшая звезда шоу-бизнеса и самая обсуждаемая женщина на планете. Необычайно скандальные выступления принесли ей неповторимый имидж и целую армию обожающих фанатов. Ее бурное вторжение в поп-индустрию произвело настоящую революцию в сфере развлечений. Она родилась 28 марта 1986 года в Нью-Йорке в семье итальянцев. С четырех лет девочка играла на пианино, которое вначале ненавидела. У Леди Гаги было довольно консервативное воспитание, ее детство прошло в хорошем районе, родители были заботливыми и строгими по отношению к ней.
качество: SATRip-AVC
формат: MKV
Видео: AVC (H.264), 704x400 (16:9), 25 fps, ~1450 kbps avg, 0.206 bit/pixel
Аудио: AC3, 2 ch, 48 kHz, ~192.00 kbps avg

MediaInfo

Общее
Уникальный идентификатор : 248103905385390883366885498650982705891 (0xBAA712F6424E0D7CBA3959EB7DC16AE3)
Полное имя : E:\My Torrents 2\[apreder]Lady_Gaga's_Secret_World(2012)SATRip.mkv
Формат : Matroska
Версия формата : Version 2
Размер файла : 704 Мбайт
Продолжительность : 59 м.
Общий поток : 1644 Кбит/сек
Дата кодирования : UTC 2015-01-24 14:24:15
Программа кодирования : mkvmerge v7.5.0 ('Glass Culture') 64bit built on Jan 4 2015 16:48:44
Библиотека кодирования : libebml v1.3.1 + libmatroska v1.4.2
Видео
Идентификатор : 1
Формат : AVC
Формат/Информация : Advanced Video Codec
Профиль формата : High@L4.1
Параметр CABAC формата : Да
Параметр ReFrames формата : 16 кадров
Идентификатор кодека : V_MPEG4/ISO/AVC
Продолжительность : 59 м.
Битрейт : 1450 Кбит/сек
Ширина : 704 пикселя
Высота : 400 пикселей
Соотношение сторон : 16:9
Режим частоты кадров : Постоянный
Частота кадров : 25,000 кадров/сек
Цветовое пространство : YUV
Субдискретизация насыщенности : 4:2:0
Битовая глубина : 8 бит
Тип развёртки : Прогрессивная
Бит/(Пиксели*Кадры) : 0.206
Размер потока : 607 Мбайт (86%)
Библиотека кодирования : x264 core 144 r2525 40bb568
Настройки программы : cabac=1 / ref=16 / deblock=1:-1:-1 / analyse=0x3:0x133 / me=umh / subme=10 / psy=1 / psy_rd=1.00:0.15 / mixed_ref=1 / me_range=24 / chroma_me=1 / trellis=2 / 8x8dct=1 / cqm=0 / deadzone=21,11 / fast_pskip=1 / chroma_qp_offset=-3 / threads=6 / lookahead_threads=1 / sliced_threads=0 / nr=0 / decimate=1 / interlaced=0 / bluray_compat=0 / constrained_intra=0 / bframes=8 / b_pyramid=2 / b_adapt=2 / b_bias=0 / direct=3 / weightb=1 / open_gop=0 / weightp=2 / keyint=250 / keyint_min=25 / scenecut=40 / intra_refresh=0 / rc_lookahead=60 / rc=2pass / mbtree=1 / bitrate=1450 / ratetol=1.0 / qcomp=0.60 / qpmin=0 / qpmax=69 / qpstep=4 / cplxblur=20.0 / qblur=0.5 / vbv_maxrate=62500 / vbv_bufsize=78125 / nal_hrd=none / filler=0 / ip_ratio=1.40 / aq=1:1.00
Default : Да
Forced : Нет
Аудио
Идентификатор : 2
Формат : AC-3
Формат/Информация : Audio Coding 3
Расширение режима : CM (complete main)
Параметр Endianness формата : Big
Идентификатор кодека : A_AC3
Продолжительность : 59 м.
Вид битрейта : Постоянный
Битрейт : 192 Кбит/сек
Каналы : 2 канала
Расположение каналов : Front: L R
Частота : 48,0 КГц
Битовая глубина : 16 бит
Метод сжатия : С потерями
Размер потока : 82,2 Мбайт (12%)
Язык : Russian
Default : Да
Forced : Нет

Скриншоты

Резервные скриншоты

-[2'074]
[teatrix.ru].t20195.torrent 
Торрент: Зарегистрирован [ 2016-03-19 00:55 ] · 24DA894481ED1BDF31F9BB42F7D9901740A5A915

Скачать .torrent

Скачать

14 KB

Статус: проверено
Скачан: 0 раз
Размер: 704 MB
terms.php



Быстрый ответ

Имя:

      
Для отправки сообщений необходимо включить JavaScript
Показать сообщения:    

Текущее время: 07-Дек 00:47

Часовой пояс: UTC + 3


Вы можете начинать темы
Вы можете отвечать на сообщения
Вы не можете редактировать свои сообщения
Вы не можете удалять свои сообщения
Вы не можете голосовать в опросах
Вы не можете прикреплять файлы к сообщениям
Вы можете скачивать файлы