[TR24][SM][OF] Max Bruch - Violin Concerto No 3 Op 58 & Scottish Fantasy Op 46 - Jack Liebeck, Martyn Brabbins & BBC Scottish Symphony Orchestra - 2014 (Classical)


Статистика раздачи [Обновить пиров]
Размер:  1.2 GB   |    Зарегистрирован:  9 месяцев 30 дней   |    Скачан:  0 раз

Полного источника не было: Никогда

 
   
 
 
 

[Цитировать]

Max Bruch (1838-1920)
Формат записи/Источник записи: [TR24][SM][OF]
Наличие водяных знаков: Нет
Издание: CDA68050
Год издания/переиздания диска: 2014
Жанр: Classical
Издатель(лейбл): Hyperion Records
Продолжительность: 01:09:35
Наличие сканов в содержимом раздачи: artwork + booklet
Треклист:
Violin Concerto No 3 in D minor Op 58
1 Allegro energico [18'09]
2 Adagio [10'49]
3 Allegro molto [9'37]
Scottish Fantasy in E flat major Op 46
4 Introduction: Grave – [3'41]
5 Adagio cantabile [5'18]
6 Allegro – [6'40]
7 Andante sostenuto [6'42]
8 Allegro guerriero [8'39]
Контейнер: FLAC (*.flac)
Тип рипа: tracks
Разрядность: 24/96
Формат: WAV (flac.ape.wv)
Количество каналов: 2.0
http://www.hyperion-records.co.uk/dc.asp?dc=D_CDA68050-

Состав

Jack Liebeck violin
BBC Scottish Symphony Orchestra
Martyn Brabbins conductor

Dynamic Range Meter

foobar2000 1.2.6 / Dynamic Range Meter 1.1.1
log date: 2015-01-24 22:26:47
--------------------------------------------------------------------------------
Analyzed: Jack Liebeck, BBC Scottish Symphony Orchestra, Martyn Brabbins / The Romantic Violin Concerto Vol. 17 - Bruch: Violin Concerto No 3 & Scottish Fantasy
--------------------------------------------------------------------------------
DR Peak RMS Duration Track
--------------------------------------------------------------------------------
DR15 -0.07 dB -21.68 dB 18:09 01-Violin Concerto No 3 in D minor, Op 58 - I. Allegro energico
DR15 -9.49 dB -30.63 dB 10:49 02-Violin Concerto No 3 in D minor, Op 58 - II. Adagio
DR13 -0.90 dB -21.23 dB 9:37 03-Violin Concerto No 3 in D minor, Op 58 - III. Allegro molto
DR15 -2.82 dB -26.46 dB 3:41 04-Scottish Fantasy in E flat major, Op 46 - I. Introduction: Grave
DR14 -5.69 dB -24.50 dB 5:18 05-Scottish Fantasy in E flat major, Op 46 - II. Adagio cantabile
DR14 -0.14 dB -21.37 dB 6:40 06-Scottish Fantasy in E flat major, Op 46 - III. Allegro
DR14 -6.43 dB -26.68 dB 6:42 07-Scottish Fantasy in E flat major, Op 46 - IV. Andante sostenuto
DR14 -0.90 dB -21.51 dB 8:39 08-Scottish Fantasy in E flat major, Op 46 - V. Allegro guerriero
--------------------------------------------------------------------------------
Number of tracks: 8
Official DR value: DR14
Samplerate: 96000 Hz
Channels: 2
Bits per sample: 24
Bitrate: 2477 kbps
Codec: FLAC
================================================================================
[teatrix.ru].t20196.torrent 
Торрент: Зарегистрирован [ 2016-03-19 00:54 ] · CB51CCD162E547D87C9CB9C78FE0C393F861537D

Скачать .torrent

Скачать

13 KB

Статус: проверено
Скачан: 0 раз
Размер: 1.2 GB
terms.php



Быстрый ответ

Имя:

      
Для отправки сообщений необходимо включить JavaScript
Показать сообщения:    

Текущее время: 18-Янв 02:33

Часовой пояс: UTC + 3


Вы можете начинать темы
Вы можете отвечать на сообщения
Вы не можете редактировать свои сообщения
Вы не можете удалять свои сообщения
Вы не можете голосовать в опросах
Вы не можете прикреплять файлы к сообщениям
Вы можете скачивать файлы