(Opera) Leoncavallo - Zaza (Strow, Romero, Adani, Cocchieri, Saldari - Italian Radio Symphony Orchestra & Chorus, Arena) • Bonus: Franchetti - Germania (Bertocci, Pucci - Radio Symphony Orchestra Turin, Argento) - 2003, APE (image+.cue) lossless


 

[Цитировать]

Ruggiero Leoncavallo - Zazà
Жанр: Opera
Страна-производитель диска: Portugal
Год издания диска: 2003
Издатель (лейбл): Gala
Номер по каталогу: GL 100.732
Дата записи: 1978
Аудиокодек: APE
Тип рипа: image+.cue
Битрейт аудио: lossless
Продолжительность: 67'02+77'51
Источник: собственный рип
Наличие сканов в содержимом раздачи: да
Треклист:

CD1

1. Act 1. Introduzione
2. Act 1. So che son capricciosa e sventatella
3. Act 1. Salute, ragazzi
4. Act 1. Buona sera, mia Zazè
5. Act 1. Lo sai tu che vuol dire un uom che fugge
6. Act 1. Augusto, buona sera!
7. Act 1. Toh! Sei tu, mammà
8. Act 1. Ebben, Zazà?
9. Act 1. Un uomo sol restavaci da questo lato
10. Act 1. Dufresne, contarvene voglio una bella!
11. Act 1. E' un riso gentil
12. Act 1. Non so capir perchè, se m'ami tu
13. Act 1. Signore, entrate
14. Act 1. Su, Zazà!
15. Act 1. Non vi seduce ripetere il duetto insieme un pò?
16. Act 2. E' deciso: tu parti per questo gran viaggio?
17. Act 2. Quando vai a Parigi e la sera ritorni
18. Act 2. Zazà, Zazà, non t'attristare
19. Act 2. Or tempo e baci per guadagnare
20. Act 2. Fa presto, Natalia!
21. Act 2. Ecco gli stivaletti, signora
22. Act 2. Zazà!... Adesso dove corre quelle saetta?
23. Act 2. Non c'è? Perchè vorrei
24. Act 2. Ah, ah, ah! Che quadretto! E' molto, è poco
25. Act 2. Cascart mio camerata, mi piace il riverderti
26. Act 2. Buona Zazà del mio buon tempo, ascolta
27. Act 2. Peggio se questa dolce illusion non dura!
28. Act 2. No, non dovea tradirmi!

CD2

1. Act 3. Preludetto - Coro interno
2. Act 3. Oh mio piccolo tavolo ingombrato
3. Act 3. Ecco son pronta, Milio
4. Act 3. Lei dunque è la signora Dunoyer?
5. Act 3. Chi sarà questa donna?
6. Act 3. Signora... guardate: una bambina
7. Act 3. Angioletto, il tuo nome?
8. Act 3. Mamma?! Io non l'ho avuta mai!
9. Act 3. E' finita! Ammogliato
10. Act 3. Voi, signora, aspettavate
11. Act 4. Così, ressuna nuova?
12. Act 4. Figliuola mia... Mia Zazà!
13. Act 4. Zazà, piccola zingara
14. Act 4. Eccoti, amore e vita!
15. Act 4. Tu non m'amavi più
16. Act 4. Che notizie mi porti da Parigi?
17. Act 4. Ebbene, sì, so tutto!
18. Act 4. Zazà, tu mi rimproveri d'averti troppo amata?
19. Act 4. Totò!!... Tu hai veduta mia figlia!
20. Act 4. Ah! Lo sol... Sono un piaga
21. Act 4. Ed ora io mi domando come, vicino a te
22. Act 4. Che ho fatto?
Исполнители:
Ruggiero Leoncavallo - Zazà
Commedia lirica in 4 Acts
Libretto: P. Berton & C. Simon
Lynne Strow (Soprano)
Angelo Romero (Bass Baritone)
Mariella Adani (Soprano),
Vinicio Cocchieri (Baritone)
Luciano Saldari (Tenor)
Italian Radio Symphony Orchestra
Italian Radio Chorus
Conductor: Maurizio Arena
Bonus: Alberto Franchetti - Germania
23. Symphonic Intermezzo (Between Scene 2 and Epilogue)
24. Son come molti un profugo
25. O tu che mi soccorri e sei pietoso
Aldo Bertocci (Tenor)
Nelly Pucci (Soprano)
Italian Radio Symphony Orchestra Turin
Italian Radio Chorus Turin
Conductor: Pietro Argento
See also: http://teatrix.ru/viewtopic.php?t=4676225

Лог создания рипа

CD1

Exact Audio Copy V1.0 beta 3 from 29. August 2011
EAC extraction logfile from 23. August 2014, 18:49
Leoncavallo / Zazà, Arena CD1
Used drive : TS8XDVDSTRANSCEND Adapter: 1 ID: 1
Read mode : Secure
Utilize accurate stream : Yes
Defeat audio cache : Yes
Make use of C2 pointers : No
Read offset correction : 6
Overread into Lead-In and Lead-Out : No
Fill up missing offset samples with silence : Yes
Delete leading and trailing silent blocks : No
Null samples used in CRC calculations : Yes
Used interface : Native Win32 interface for Win NT & 2000
Used output format : Monkey's Audio Lossless Encoder
Selected bitrate : High Lossless Compression
Quality : High
Add ID3 tag : No
Command line compressor : C:\Program Files (x86)\Exact Audio Copy\MAC\MAC.exe
TOC of the extracted CD
Track | Start | Length | Start sector | End sector
---------------------------------------------------------
1 | 0:00.00 | 1:12.31 | 0 | 5430
2 | 1:12.31 | 2:59.11 | 5431 | 18866
3 | 4:11.42 | 1:02.25 | 18867 | 23541
4 | 5:13.67 | 3:02.71 | 23542 | 37262
5 | 8:16.63 | 2:20.69 | 37263 | 47831
6 | 10:37.57 | 1:21.24 | 47832 | 53930
7 | 11:59.06 | 2:12.01 | 53931 | 63831
8 | 14:11.07 | 1:20.39 | 63832 | 69870
9 | 15:31.46 | 1:49.13 | 69871 | 78058
10 | 17:20.59 | 1:07.33 | 78059 | 83116
11 | 18:28.17 | 2:11.42 | 83117 | 92983
12 | 20:39.59 | 2:50.20 | 92984 | 105753
13 | 23:30.04 | 6:23.16 | 105754 | 134494
14 | 29:53.20 | 1:14.22 | 134495 | 140066
15 | 31:07.42 | 2:26.58 | 140067 | 151074
16 | 33:34.25 | 2:31.71 | 151075 | 162470
17 | 36:06.21 | 1:57.06 | 162471 | 171251
18 | 38:03.27 | 2:23.08 | 171252 | 181984
19 | 40:26.35 | 1:51.20 | 181985 | 190329
20 | 42:17.55 | 2:32.15 | 190330 | 201744
21 | 44:49.70 | 1:29.02 | 201745 | 208421
22 | 46:18.72 | 2:33.11 | 208422 | 219907
23 | 48:52.08 | 4:24.52 | 219908 | 239759
24 | 53:16.60 | 1:40.49 | 239760 | 247308
25 | 54:57.34 | 1:23.64 | 247309 | 253597
26 | 56:21.23 | 1:23.72 | 253598 | 259894
27 | 57:45.20 | 5:45.64 | 259895 | 285833
28 | 63:31.09 | 3:28.74 | 285834 | 301507
Range status and errors
Selected range
Filename D:\EAC\Leoncavallo - Zazà, Arena CD1.wav
Peak level 94.4 %
Extraction speed 3.3 X
Range quality 100.0 %
Test CRC 03F5239F
Copy CRC 03F5239F
Copy OK
No errors occurred
AccurateRip summary
Track 1 accurately ripped (confidence 1) [AB1DD5EC] (AR v1)
Track 2 accurately ripped (confidence 1) [B2303A61] (AR v1)
Track 3 accurately ripped (confidence 1) [702319E7] (AR v1)
Track 4 accurately ripped (confidence 1) [35340F04] (AR v1)
Track 5 accurately ripped (confidence 1) [D81DF4FC] (AR v1)
Track 6 accurately ripped (confidence 1) [B9D7A6C9] (AR v1)
Track 7 accurately ripped (confidence 1) [0D36DB31] (AR v1)
Track 8 accurately ripped (confidence 1) [142FE94E] (AR v1)
Track 9 accurately ripped (confidence 1) [1A393F4E] (AR v1)
Track 10 accurately ripped (confidence 1) [83845524] (AR v1)
Track 11 accurately ripped (confidence 1) [08525369] (AR v1)
Track 12 accurately ripped (confidence 1) [8B3508FF] (AR v1)
Track 13 accurately ripped (confidence 1) [41DF1891] (AR v1)
Track 14 accurately ripped (confidence 1) [999CC6BE] (AR v1)
Track 15 accurately ripped (confidence 1) [B8E0886B] (AR v1)
Track 16 accurately ripped (confidence 1) [069B2D4B] (AR v1)
Track 17 accurately ripped (confidence 1) [33847612] (AR v1)
Track 18 accurately ripped (confidence 1) [E1ADC1D5] (AR v1)
Track 19 accurately ripped (confidence 1) [D8DB13B1] (AR v1)
Track 20 accurately ripped (confidence 1) [568D38DD] (AR v1)
Track 21 accurately ripped (confidence 1) [A0C4D9F2] (AR v1)
Track 22 accurately ripped (confidence 1) [3CD0B522] (AR v1)
Track 23 accurately ripped (confidence 1) [61BF1945] (AR v1)
Track 24 accurately ripped (confidence 1) [C78147FD] (AR v1)
Track 25 accurately ripped (confidence 1) [C9C777A3] (AR v1)
Track 26 accurately ripped (confidence 1) [E3E39665] (AR v1)
Track 27 accurately ripped (confidence 1) [C5E678D5] (AR v1)
Track 28 accurately ripped (confidence 1) [31AFC731] (AR v1)
All tracks accurately ripped
End of status report
---- CUETools DB Plugin V2.1.3
[CTDB TOCID: Td5FUMNCRFn_tsyCw8H6ZHjE__A-] disk not present in database, Submit result: unrecognized or virtual drive
==== Log checksum F393586AC27FE9CB5F0AB8D6FFBE6776478D7E95C0F1C6439DF958DACA9AE425 ====

CD2

Exact Audio Copy V1.0 beta 3 from 29. August 2011
EAC extraction logfile from 23. August 2014, 18:38
Leoncavallo / Zazà, Arena CD2
Used drive : TSSTcorpCDDVDW SE-208AB Adapter: 1 ID: 0
Read mode : Secure
Utilize accurate stream : Yes
Defeat audio cache : Yes
Make use of C2 pointers : No
Read offset correction : 6
Overread into Lead-In and Lead-Out : No
Fill up missing offset samples with silence : Yes
Delete leading and trailing silent blocks : No
Null samples used in CRC calculations : Yes
Used interface : Native Win32 interface for Win NT & 2000
Used output format : Monkey's Audio Lossless Encoder
Selected bitrate : High Lossless Compression
Quality : High
Add ID3 tag : No
Command line compressor : C:\Program Files (x86)\Exact Audio Copy\MAC\MAC.exe
TOC of the extracted CD
Track | Start | Length | Start sector | End sector
---------------------------------------------------------
1 | 0:00.00 | 2:44.68 | 0 | 12367
2 | 2:44.68 | 4:07.18 | 12368 | 30910
3 | 6:52.11 | 1:36.70 | 30911 | 38180
4 | 8:29.06 | 1:56.40 | 38181 | 46920
5 | 10:25.46 | 2:29.65 | 46921 | 58160
6 | 12:55.36 | 1:32.28 | 58161 | 65088
7 | 14:27.64 | 1:38.15 | 65089 | 72453
8 | 16:06.04 | 3:35.57 | 72454 | 88635
9 | 19:41.61 | 3:44.07 | 88636 | 105442
10 | 23:25.68 | 2:38.55 | 105443 | 117347
11 | 26:04.48 | 2:17.64 | 117348 | 127686
12 | 28:22.37 | 2:54.24 | 127687 | 140760
13 | 31:16.61 | 4:24.27 | 140761 | 160587
14 | 35:41.13 | 1:26.47 | 160588 | 167084
15 | 37:07.60 | 2:18.33 | 167085 | 177467
16 | 39:26.18 | 2:43.44 | 177468 | 189736
17 | 42:09.62 | 3:15.14 | 189737 | 204375
18 | 45:25.01 | 3:02.65 | 204376 | 218090
19 | 48:27.66 | 1:06.58 | 218091 | 223098
20 | 49:34.49 | 1:41.54 | 223099 | 230727
21 | 51:16.28 | 2:36.71 | 230728 | 242498
22 | 53:53.24 | 2:19.48 | 242499 | 252971
23 | 56:12.72 | 6:45.54 | 252972 | 283400
24 | 62:58.51 | 2:47.22 | 283401 | 295947
25 | 65:45.73 | 12:03.58 | 295948 | 350230
Range status and errors
Selected range
Filename D:\EAC\Leoncavallo - Zazà, Arena CD2.wav
Peak level 94.8 %
Extraction speed 5.3 X
Range quality 100.0 %
Test CRC 8B93FEE3
Copy CRC 8B93FEE3
Copy OK
No errors occurred
AccurateRip summary
Track 1 accurately ripped (confidence 1) [021EE4BF] (AR v1)
Track 2 accurately ripped (confidence 1) [F52B2FCE] (AR v1)
Track 3 accurately ripped (confidence 1) [56C4826D] (AR v1)
Track 4 accurately ripped (confidence 1) [953A8541] (AR v1)
Track 5 accurately ripped (confidence 1) [5306C7DB] (AR v1)
Track 6 accurately ripped (confidence 1) [9B8980BB] (AR v1)
Track 7 accurately ripped (confidence 1) [1DB0E2E5] (AR v1)
Track 8 accurately ripped (confidence 1) [C90F0ED0] (AR v1)
Track 9 accurately ripped (confidence 1) [7B3E1ABC] (AR v1)
Track 10 accurately ripped (confidence 1) [8F54FE8F] (AR v1)
Track 11 accurately ripped (confidence 1) [91FDA68D] (AR v1)
Track 12 accurately ripped (confidence 1) [5651D850] (AR v1)
Track 13 accurately ripped (confidence 1) [6C7998BA] (AR v1)
Track 14 accurately ripped (confidence 1) [13918DD3] (AR v1)
Track 15 accurately ripped (confidence 1) [CB5F364A] (AR v1)
Track 16 accurately ripped (confidence 1) [0F95C3B4] (AR v1)
Track 17 accurately ripped (confidence 1) [F6261F80] (AR v1)
Track 18 accurately ripped (confidence 1) [BE1ED56F] (AR v1)
Track 19 accurately ripped (confidence 1) [F2D339DE] (AR v1)
Track 20 accurately ripped (confidence 1) [6503C7AF] (AR v1)
Track 21 accurately ripped (confidence 1) [74960A29] (AR v1)
Track 22 accurately ripped (confidence 1) [5CACB87C] (AR v1)
Track 23 accurately ripped (confidence 1) [D25799CD] (AR v1)
Track 24 accurately ripped (confidence 1) [5DF94F1F] (AR v1)
Track 25 accurately ripped (confidence 1) [DB992E2F] (AR v1)
All tracks accurately ripped
End of status report
---- CUETools DB Plugin V2.1.3
[CTDB TOCID: Qhn45sDt.ptO5IwGcz.3eDXKQfU-] disk not present in database, Submit result: Qhn45sDt.ptO5IwGcz.3eDXKQfU- has been uploaded
==== Log checksum E268B4A878E816DCFA2C7CB194ADB1FEA032A86DC028D9667560369A105C9B7C ====

Содержание индексной карты (.CUE)

CD1

REM GENRE Opera
REM DATE 1978
REM DISCID 9C0FB41C
REM COMMENT "ExactAudioCopy v1.0b3"
PERFORMER "Leoncavallo"
TITLE "Zazà, Arena CD1"
FILE "Leoncavallo - Zazà, Arena CD1.ape" WAVE
TRACK 01 AUDIO
TITLE "Atto 1 - Introduzione"
PERFORMER "Leoncavallo"
INDEX 01 00:00:00
TRACK 02 AUDIO
TITLE "Atto 1 - So Che Son Capricciosa E Sventatella"
PERFORMER "Leoncavallo"
INDEX 01 01:12:31
TRACK 03 AUDIO
TITLE "Atto 1 - Salute, Ragazzi"
PERFORMER "Leoncavallo"
INDEX 01 04:11:42
TRACK 04 AUDIO
TITLE "Atto 1 - Buona Sera, Mia Zazà"
PERFORMER "Leoncavallo"
INDEX 01 05:13:67
TRACK 05 AUDIO
TITLE "Atto 1 - Lo Sai Tu Che Vuol Dire Un Uom Che Fugge"
PERFORMER "Leoncavallo"
INDEX 01 08:16:63
TRACK 06 AUDIO
TITLE "Atto 1 - Augusto, Buona Sera!"
PERFORMER "Leoncavallo"
INDEX 01 10:37:57
TRACK 07 AUDIO
TITLE "Atto 1 - Toh! Sei Tu, Mammà"
PERFORMER "Leoncavallo"
INDEX 01 11:59:06
TRACK 08 AUDIO
TITLE "Atto 1 - Ebben, Zazà?"
PERFORMER "Leoncavallo"
INDEX 01 14:11:07
TRACK 09 AUDIO
TITLE "Atto 1 - Un Uomo Sol Restavaci Da Questo Lato"
PERFORMER "Leoncavallo"
INDEX 01 15:31:46
TRACK 10 AUDIO
TITLE "Atto 1 - Dufresne, Contarvene"
PERFORMER "Leoncavallo"
INDEX 01 17:20:59
TRACK 11 AUDIO
TITLE "Atto 1 - E'un Riso Gentil"
PERFORMER "Leoncavallo"
INDEX 01 18:28:17
TRACK 12 AUDIO
TITLE "Atto 1 - Non So Capir Perchè"
PERFORMER "Leoncavallo"
INDEX 01 20:39:59
TRACK 13 AUDIO
TITLE "Atto 1 - Signore, Entrate"
PERFORMER "Leoncavallo"
INDEX 01 23:30:04
TRACK 14 AUDIO
TITLE "Atto 1 - Su, Zazà!"
PERFORMER "Leoncavallo"
INDEX 01 29:53:20
TRACK 15 AUDIO
TITLE "Atto 1 - Non VI Seduce Ripetere"
PERFORMER "Leoncavallo"
INDEX 01 31:07:42
TRACK 16 AUDIO
TITLE "Atto 2 - E' Deciso"
PERFORMER "Leoncavallo"
INDEX 01 33:34:25
TRACK 17 AUDIO
TITLE "Atto 2 - Quando Vai A Parigi"
PERFORMER "Leoncavallo"
INDEX 01 36:06:21
TRACK 18 AUDIO
TITLE "Atto 2 - Zazà, Zazà, Non T'attristare"
PERFORMER "Leoncavallo"
INDEX 01 38:03:27
TRACK 19 AUDIO
TITLE "Atto 2 - Or Tempo E Baci Per Guadagnare"
PERFORMER "Leoncavallo"
INDEX 01 40:26:35
TRACK 20 AUDIO
TITLE "Atto 2 - Fa Presto, Natalia!"
PERFORMER "Leoncavallo"
INDEX 01 42:17:55
TRACK 21 AUDIO
TITLE "Atto 2 - Ecco Gli Stivaletti"
PERFORMER "Leoncavallo"
INDEX 01 44:49:70
TRACK 22 AUDIO
TITLE "Atto 2 - Zazà! Adesso Dove"
PERFORMER "Leoncavallo"
INDEX 01 46:18:72
TRACK 23 AUDIO
TITLE "Atto 2 - Non C'è? Perchè Vorrei"
PERFORMER "Leoncavallo"
INDEX 01 48:52:08
TRACK 24 AUDIO
TITLE "Atto 2 - Ah, Ah, Ah! Che Quadretto! E' Molto, È Poco"
PERFORMER "Leoncavallo"
INDEX 01 53:16:60
TRACK 25 AUDIO
TITLE "Atto 2 - Cascart, Mio Camerata"
PERFORMER "Leoncavallo"
INDEX 01 54:57:34
TRACK 26 AUDIO
TITLE "Atto 2 - Buona Zazà Del Mio Buon Tempo"
PERFORMER "Leoncavallo"
INDEX 01 56:21:23
TRACK 27 AUDIO
TITLE "Atto 2 - Peggio Se Questa"
PERFORMER "Leoncavallo"
INDEX 01 57:45:20
TRACK 28 AUDIO
TITLE "Atto 2 - No, Non Dovea Tradirmi!"
PERFORMER "Leoncavallo"
INDEX 01 63:31:09

CD2

REM GENRE Opera
REM DATE 1978
REM DISCID 8F123D19
REM COMMENT "ExactAudioCopy v1.0b3"
PERFORMER "Leoncavallo"
TITLE "Zazà, Arena CD2"
FILE "Leoncavallo - Zazà, Arena CD2.ape" WAVE
TRACK 01 AUDIO
TITLE "Atto 3 - Preludietto - Coro Interno"
PERFORMER "Leoncavallo"
INDEX 01 00:00:00
TRACK 02 AUDIO
TITLE "Atto 3 - Oh Mio Piccolo"
PERFORMER "Leoncavallo"
INDEX 01 02:44:68
TRACK 03 AUDIO
TITLE "Atto 3 - Ecco Son Pronta"
PERFORMER "Leoncavallo"
INDEX 01 06:52:11
TRACK 04 AUDIO
TITLE "Atto 3 - Lei Dunque È La Signora"
PERFORMER "Leoncavallo"
INDEX 01 08:29:06
TRACK 05 AUDIO
TITLE "Atto 3 - Chi Sarà Questa"
PERFORMER "Leoncavallo"
INDEX 01 10:25:46
TRACK 06 AUDIO
TITLE "Atto 3 - Signora... Guardate"
PERFORMER "Leoncavallo"
INDEX 01 12:55:36
TRACK 07 AUDIO
TITLE "Atto 3 - Angioletto, Il Tuo Nome?"
PERFORMER "Leoncavallo"
INDEX 01 14:27:64
TRACK 08 AUDIO
TITLE "Atto 3 - Mamma?! Io Non L'ho Avuta"
PERFORMER "Leoncavallo"
INDEX 01 16:06:04
TRACK 09 AUDIO
TITLE "Atto 3 - E' Finta! Ammogliato"
PERFORMER "Leoncavallo"
INDEX 01 19:41:61
TRACK 10 AUDIO
TITLE "Atto 3 - Voi, Signora, Aspettavate"
PERFORMER "Leoncavallo"
INDEX 01 23:25:68
TRACK 11 AUDIO
TITLE "Atto 4 - Cosi, Nessuna Nuova?"
PERFORMER "Leoncavallo"
INDEX 01 26:04:48
TRACK 12 AUDIO
TITLE "Atto 4 - Figliuola Mia... Mia Zazà"
PERFORMER "Leoncavallo"
INDEX 01 28:22:37
TRACK 13 AUDIO
TITLE "Atto 4 - Zazà, Piccola Zingara"
PERFORMER "Leoncavallo"
INDEX 01 31:16:61
TRACK 14 AUDIO
TITLE "Atto 4 - Eccoti, Amore E Vita!"
PERFORMER "Leoncavallo"
INDEX 01 35:41:13
TRACK 15 AUDIO
TITLE "Atto 4 - Tu Non M'amavi Più"
PERFORMER "Leoncavallo"
INDEX 01 37:07:60
TRACK 16 AUDIO
TITLE "Atto 4 - Che Notizie Mi Porti Da Parigi?"
PERFORMER "Leoncavallo"
INDEX 01 39:26:18
TRACK 17 AUDIO
TITLE "Atto 4 - Ebbene, Si, So Tutto"
PERFORMER "Leoncavallo"
INDEX 01 42:09:62
TRACK 18 AUDIO
TITLE "Atto 4 - Zazà, Tu Mi Rimproveri"
PERFORMER "Leoncavallo"
INDEX 01 45:25:01
TRACK 19 AUDIO
TITLE "Atto 4 - Totò! Tu Hai Veduta"
PERFORMER "Leoncavallo"
INDEX 01 48:27:66
TRACK 20 AUDIO
TITLE "Atto 4 - Ah! Lo So!"
PERFORMER "Leoncavallo"
INDEX 01 49:34:49
TRACK 21 AUDIO
TITLE "Atto 4 - Ed Ora Io Mi"
PERFORMER "Leoncavallo"
INDEX 01 51:16:28
TRACK 22 AUDIO
TITLE "Atto 4 - Che Ho Fatto?"
PERFORMER "Leoncavallo"
INDEX 01 53:53:24
TRACK 23 AUDIO
TITLE "Alberto Franchetti - Germania (Argento) - Symphonic Intermezzo"
PERFORMER "Leoncavallo"
INDEX 01 56:12:72
TRACK 24 AUDIO
TITLE "Alberto Franchetti - Germania (Argento) - Son Come Molti"
PERFORMER "Leoncavallo"
INDEX 01 62:58:51
TRACK 25 AUDIO
TITLE "Alberto Franchetti - Germania (Argento) - O Tu Che Mi Soccorri"
PERFORMER "Leoncavallo"
INDEX 01 65:45:73



Показать сообщения:    

Текущее время: 07-Дек 11:40

Часовой пояс: UTC + 3


Вы не можете начинать темы
Вы не можете отвечать на сообщения
Вы не можете редактировать свои сообщения
Вы не можете удалять свои сообщения
Вы не можете голосовать в опросах
Вы не можете прикреплять файлы к сообщениям
Вы не можете скачивать файлы