(Classical) [EP] [24/96] Оркестр Большого Театра СССР, дир. Б. Хайкин - Запись 1961 года (L. Boccherini, M. Ogiński, A. Рубинштейн) - 1990, FLAC (tracks)


Статистика раздачи [Обновить пиров]
Размер:  137 MB   |    Зарегистрирован:  8 месяцев 15 дней   |    Скачан:  0 раз

Полного источника не было: Никогда

Личеров:  26  [  0 KB/s  ]   Подробная статистика пиров
 
   
 
 
 

[Цитировать]

Оркестр Большого Театра СССР, дир. Б. Хайкин - Запись 1961 года
Жанр: Classical
Носитель: EP
Год выпуска: 1990
Лейбл: ВТПО "Фирма Мелодия" (Д - 0009013-14)
Страна-производитель: Russia
Аудио кодек: FLAC
Тип рипа: tracks
Формат записи: 32/96 dual mono
Формат раздачи: 24/96 mono
Продолжительность: 00:13:25
Тэги: прописаны
Источник оцифровки: msvkp
Код класса состояния винила: VG
Устройство воспроизведения: Электроника Д1-012
Головка звукоснимателя: ЭДА 001
Предварительный усилитель: встроенный
АЦП: Realtek ALC887
Программа-оцифровщик: Cool Edit Pro 2.1
Dynamic Range Metr: DR14
Обработка: удаление артефактов, реставрация (samopal records)-Трэклист
01. Менуэт
Л. Боккерини
02. Полонез
М. Огинский
03. Лезгинка
А. Рубинштейн
-

Конверт, наклейки:


Уровень записи, спектр, АЧХ:

Dynamic Range Meter:

foobar2000 1.1.3 / Dynamic Range Meter 1.1.1
log date: 2015-01-25 10:02:28
--------------------------------------------------------------------------------
Analyzed: Оркестр БТ СССР, дир. Б. Хайкин / Записи 1961 года
--------------------------------------------------------------------------------
DR Peak RMS Duration Track
--------------------------------------------------------------------------------
DR15 -3.56 dB -23.11 dB 3:26 ?-Менуэт
DR12 -1.30 dB -15.07 dB 3:25 ?-Полонез
DR16 -1.30 dB -23.26 dB 6:33 ?-Лезгинка
--------------------------------------------------------------------------------
Number of tracks: 3
Official DR value: DR14
Samplerate: 96000 Hz
Channels: 1
Bits per sample: 24
Bitrate: 1380 kbps
Codec: FLAC
================================================================================
[teatrix.ru].t20202.torrent 
Торрент: Зарегистрирован [ 2016-03-19 00:53 ] · 6D6F6480B8439FBDFAA8B4F908975EF30695AE6C

Скачать .torrent

Скачать

12 KB

Статус: проверено
Скачан: 0 раз
Размер: 137 MB
terms.php



Быстрый ответ

Имя:

      
Для отправки сообщений необходимо включить JavaScript
Показать сообщения:    

Текущее время: 03-Дек 20:45

Часовой пояс: UTC + 3


Вы можете начинать темы
Вы можете отвечать на сообщения
Вы не можете редактировать свои сообщения
Вы не можете удалять свои сообщения
Вы не можете голосовать в опросах
Вы не можете прикреплять файлы к сообщениям
Вы можете скачивать файлы