[TR24][SM][OF] F. Busoni & R. Strauss - Violin Concerto in D major, Benedictus & Violin Concerto in D minor / Tanja Becker-Bender, Garry Walker & BBC Scottish Symphony Orchestra - 2014 (Classical)


Статистика раздачи [Обновить пиров]
Размер:  1.08 GB   |    Зарегистрирован:  8 месяцев 21 день   |    Скачан:  0 раз

Полного источника не было: Никогда

Личеров:  33  [  0 KB/s  ]   Подробная статистика пиров
 
   
 
 
 

[Цитировать]

The Romantic Violin Concerto ~ 16
Формат записи/Источник записи: [TR24][SM][OF]
Наличие водяных знаков: Нет
Издание: CDA68044
Год издания/переиздания диска: 2014
Жанр: Classical
Издатель(лейбл): Hyperion Records
Продолжительность: 01:03:02
Наличие сканов в содержимом раздачи: Да
Треклист:
Ferruccio Busoni (1866-1924)
Violin Concerto in D major Op 35a
1 Allegro moderato – [8'14]
2 Quasi andante [8'02]
3 Allegro impetuoso [7'12]
Ludwig van Beethoven (1770-1827), arr. Ferruccio Busoni (1866-1924)
4 Benedictus (Movement 4b of Missa solemnis, Op 123) [8'47]
Richard Strauss (1864-1949)
Violin Concerto in D minor Op 8
5 Allegro [15'04]
6 Lento ma non troppo [6'32]
7 Rondo: Prestissimo [9'11]
Контейнер: FLAC (*.flac)
Тип рипа: tracks
Разрядность: 24/96
Формат: WAV (flac.ape.wv)
Количество каналов: 2.0

http://www.hyperion-records.co.uk/dc.asp?dc=D_CDA68044-

Состав

Tanja Becker-Bender, violin
BBC Scottish Symphony Orchestra
Garry Walker, conductor

Dynamic Range Meter

foobar2000 1.2.6 / Dynamic Range Meter 1.1.1
log date: 2015-01-25 20:15:48
--------------------------------------------------------------------------------
Analyzed: Tanja Becker-Bende, BBC Scottish Symphony Orchestra, Garry Walker / The Romantic Violin Concerto Vol. 16 - Busoni & Strauss: Violin Concertos
--------------------------------------------------------------------------------
DR Peak RMS Duration Track
--------------------------------------------------------------------------------
DR16 -0.05 dB -22.70 dB 8:14 01-Violin Concerto in D major, Op 35a - Movement 1: Allegro moderato
DR13 -11.02 dB -29.90 dB 8:02 02-Violin Concerto in D major, Op 35a - Movement 2: Quasi andante
DR15 -0.12 dB -22.17 dB 7:12 03-Violin Concerto in D major, Op 35a - Movement 3: Allegro impetuoso
DR16 -2.49 dB -26.20 dB 8:47 04-Missa solemnis, Op 123 - Movement 4b: Benedictus (arr. for violin and orc. by Ferruccio Busoni)
DR16 -0.06 dB -22.48 dB 15:04 05-Violin Concerto in D minor, Op 8 - Movement 1: Allegro
DR13 -8.93 dB -29.26 dB 6:32 06-Violin Concerto in D minor, Op 8 - Movement 2: Lento ma non troppo
DR16 -0.23 dB -23.74 dB 9:11 07-Violin Concerto in D minor, Op 8 - Movement 3: Rondo: Prestissimo
--------------------------------------------------------------------------------
Number of tracks: 7
Official DR value: DR15
Samplerate: 96000 Hz
Channels: 2
Bits per sample: 24
Bitrate: 2478 kbps
Codec: FLAC
================================================================================
[teatrix.ru].t20204.torrent 
Торрент: Зарегистрирован [ 2016-03-19 00:54 ] · 47B109B3FB9487A795BB73DB744CF58A31BE04A6

Скачать .torrent

Скачать

12 KB

Статус: проверено
Скачан: 0 раз
Размер: 1.08 GB
terms.php



Быстрый ответ

Имя:

      
Для отправки сообщений необходимо включить JavaScript
Показать сообщения:    

Текущее время: 09-Дек 18:34

Часовой пояс: UTC + 3


Вы можете начинать темы
Вы можете отвечать на сообщения
Вы не можете редактировать свои сообщения
Вы не можете удалять свои сообщения
Вы не можете голосовать в опросах
Вы не можете прикреплять файлы к сообщениям
Вы можете скачивать файлы