[TR24][SM][OF] Bela Bartok - Bluebeard's Castle - Ildiko Komlosy, Laszlo Polgar, Ivan Fischer & Budapest Festival Orchestra - 2004 (Classical)


Статистика раздачи [Обновить пиров]
Размер:  1.01 GB   |    Зарегистрирован:  10 месяцев 3 дня   |    Скачан:  0 раз

Полного источника не было: Никогда

Личеров:  15  [  0 KB/s  ]   Подробная статистика пиров
 
   
 
 
 

[Цитировать]

Béla Bartók (1881-1945)

Формат записи/Источник записи: [TR24][SM][OF]
Наличие водяных знаков: Нет
Издание: 4706332
Год издания/переиздания диска: 2004 / 2012
Жанр: Opera
Издатель(лейбл): Decca
Продолжительность: 55:25
Наличие сканов в содержимом раздачи: front cover
Треклист:
Bluebeard's Castle, Sz. 48 (Op.11) - original version
1 Prologue 1:37
2 Opening Scene. "Megérkeztünk" 12:36
3 Door 1. "Jaj!" "Mit látsz? Mit látsz?" "Láncok, kések" 4:01
4 Door 2. "Mit látsz?" "Százkegyetlen szörnyü fegyver" 3:56
5 Door 3. "Oh, be sok kincs! Oh, be sok kincs!" 2:09
6 Door 4. "Oh! virágok! Oh! ilatoskert!" 4:32
7 Door 5. "Ah!" "Lásdez az én birodalmam" 5:55
8 Door 6. "Csendes fehér tavat látok" 11:57
9 Door 7. "Lásd a régi aszszonyokat" 8:37
Контейнер: FLAC (*.flac)
Тип рипа: tracks
Разрядность: 24/96
Формат: WAV (flac.ape.wv)
Количество каналов: 2.0
http://www.prestoclassical.co.uk/r/Decca/4706332-

Состав

Laszló Polgár (Bluebeard) & Ildikó Komlósi (Judith)
Budapest Festival Orchestra, Iván Fischer

Dynamic Range Meter

foobar2000 1.2.6 / Dynamic Range Meter 1.1.1
log date: 2015-01-25 21:09:31
--------------------------------------------------------------------------------
Analyzed: László Polgár, Ildiko Komlosi, Budapest Festival Orchestra, Iván Fischer / Bartók: Duke Bluebeard's Castle, Sz. 48, Op. 11
--------------------------------------------------------------------------------
DR Peak RMS Duration Track
--------------------------------------------------------------------------------
DR17 -26.03 dB -48.85 dB 1:38 01-Bluebeard's Castle, Sz. 48 (Op.11) - Prologue
DR22 -0.34 dB -30.42 dB 12:37 02-Bluebeard's Castle, Sz. 48 (Op.11) - Opening Scene. 'Megérkeztünk'
DR16 -4.83 dB -28.61 dB 4:02 03-Bluebeard's Castle, Sz. 48 (Op.11) - Door 1. 'Jaj!' 'Mit látsz? Mit látsz?' 'Láncok, kések'
DR15 -9.53 dB -30.89 dB 3:56 04-Bluebeard's Castle, Sz. 48 (Op.11) - Door 2. 'Mit látsz?' 'Százkegyetlen szörnyü fegyver'
DR15 -9.46 dB -31.27 dB 2:10 05-Bluebeard's Castle, Sz. 48 (Op.11) - Door 3. 'Oh, be sok kincs! Oh, be sok kincs!'
DR15 -3.47 dB -26.02 dB 4:32 06-Bluebeard's Castle, Sz. 48 (Op.11) - Door 4. 'Oh! virágok! Oh! ilatoskert!'
DR14 -0.20 dB -20.82 dB 5:56 07-Bluebeard's Castle, Sz. 48 (Op.11) - Door 5. 'Ah!' 'Lásdez az én birodalmam'
DR19 -0.20 dB -27.29 dB 11:57 08-Bluebeard's Castle, Sz. 48 (Op.11) - Door 6. 'Csendes fehér tavat látok'
DR17 -2.18 dB -26.61 dB 8:37 09-Bluebeard's Castle, Sz. 48 (Op.11) - Door 7. 'Lásd a régi aszszonyokat'
--------------------------------------------------------------------------------
Number of tracks: 9
Official DR value: DR17
Samplerate: 96000 Hz
Channels: 2
Bits per sample: 24
Bitrate: 2601 kbps
Codec: FLAC
================================================================================
[teatrix.ru].t20206.torrent 
Торрент: Зарегистрирован [ 2016-03-19 00:55 ] · 761712D4C3FB2233DCC1F25772D49B49EDBAED4A

Скачать .torrent

Скачать

12 KB

Статус: проверено
Скачан: 0 раз
Размер: 1.01 GB
terms.php



Быстрый ответ

Имя:

      
Для отправки сообщений необходимо включить JavaScript
Показать сообщения:    

Текущее время: 22-Янв 04:44

Часовой пояс: UTC + 3


Вы можете начинать темы
Вы можете отвечать на сообщения
Вы не можете редактировать свои сообщения
Вы не можете удалять свои сообщения
Вы не можете голосовать в опросах
Вы не можете прикреплять файлы к сообщениям
Вы можете скачивать файлы