Сумерки. Сага о Роберте Паттинсоне и Тейлоре Лотнере / Twilight: The Robert Pattinson & Taylor Lautner Saga (Алек Линдселл / Alec Lindsell) [2012, документальный, кинематограф, SATRip-AVC] DVO (Ред Медиа)


Статистика раздачи [Обновить пиров]
Размер:  698 MB   |    Зарегистрирован:  8 месяцев 20 дней   |    Скачан:  0 раз

Полного источника не было: Никогда

Личеров:  15  [  0 KB/s  ]   Подробная статистика пиров
 
   
 
 
 

[Цитировать]

Сумерки. Сага о Роберте Паттинсоне и Тейлоре Лотнере
Twilight: The Robert Pattinson & Taylor Lautner Saga- Дата/Год выпуска: 2012
Страна: Великобритания
Жанр: документальный, кинематограф
Продолжительность: 01:01:13
Перевод: Профессиональный (двухголосый закадровый)
Доп. инфо о переводе: ТПО "Ред Медиа"
Русские субтитры: нет
Режиссер: Алек Линдселл / Alec Lindsell
Телеканал: STVОписание: Документальный фильм о двух популярных молодых актерах: британце Роберте Паттинсоне, получившему известность благодаря участию в двух фильмах о "Гарри Поттере"; и американце Тейлоре Лотнере, известному по фильму "Приключения Шаркбоя и Лавы". Актеры встретились на съемках продолжения вампирской саги "Сумерки. Сага. Рассвет" (2012).
качество: SATRip-AVC
формат: MKV
Видео: AVC (H.264), 704x400 (16:9), 25 fps, ~1400 kbps avg, 0.199 bit/pixel
Аудио: AC3, 2 ch, 48 kHz, ~192.00 kbps avg

MediaInfo

Общее
Уникальный идентификатор : 203441088674456259475577682605042434829 (0x990D5415EF1F8CBAA88F8BDE2CE6030D)
Полное имя : E:\My Torrents 2\[apreder]Twilight_The_Robert_Pattinson_&_Taylor_Lautner_Saga(2012)SATRip.mkv
Формат : Matroska
Версия формата : Version 2
Размер файла : 698 Мбайт
Продолжительность : 1 ч. 1 м.
Общий поток : 1594 Кбит/сек
Дата кодирования : UTC 2015-01-25 16:59:30
Программа кодирования : mkvmerge v7.5.0 ('Glass Culture') 64bit built on Jan 4 2015 16:48:44
Библиотека кодирования : libebml v1.3.1 + libmatroska v1.4.2
Видео
Идентификатор : 1
Формат : AVC
Формат/Информация : Advanced Video Codec
Профиль формата : High@L4.1
Параметр CABAC формата : Да
Параметр ReFrames формата : 16 кадров
Идентификатор кодека : V_MPEG4/ISO/AVC
Продолжительность : 1 ч. 1 м.
Битрейт : 1400 Кбит/сек
Ширина : 704 пикселя
Высота : 400 пикселей
Соотношение сторон : 16:9
Режим частоты кадров : Постоянный
Частота кадров : 25,000 кадров/сек
Цветовое пространство : YUV
Субдискретизация насыщенности : 4:2:0
Битовая глубина : 8 бит
Тип развёртки : Прогрессивная
Бит/(Пиксели*Кадры) : 0.199
Размер потока : 600 Мбайт (86%)
Библиотека кодирования : x264 core 144 r2525 40bb568
Настройки программы : cabac=1 / ref=16 / deblock=1:-1:-1 / analyse=0x3:0x133 / me=umh / subme=10 / psy=1 / psy_rd=1.00:0.15 / mixed_ref=1 / me_range=24 / chroma_me=1 / trellis=2 / 8x8dct=1 / cqm=0 / deadzone=21,11 / fast_pskip=1 / chroma_qp_offset=-3 / threads=6 / lookahead_threads=1 / sliced_threads=0 / nr=0 / decimate=1 / interlaced=0 / bluray_compat=0 / constrained_intra=0 / bframes=8 / b_pyramid=2 / b_adapt=2 / b_bias=0 / direct=3 / weightb=1 / open_gop=0 / weightp=2 / keyint=250 / keyint_min=25 / scenecut=40 / intra_refresh=0 / rc_lookahead=60 / rc=2pass / mbtree=1 / bitrate=1400 / ratetol=1.0 / qcomp=0.60 / qpmin=0 / qpmax=69 / qpstep=4 / cplxblur=20.0 / qblur=0.5 / vbv_maxrate=62500 / vbv_bufsize=78125 / nal_hrd=none / filler=0 / ip_ratio=1.40 / aq=1:1.00
Default : Да
Forced : Нет
Аудио
Идентификатор : 2
Формат : AC-3
Формат/Информация : Audio Coding 3
Расширение режима : CM (complete main)
Параметр Endianness формата : Big
Идентификатор кодека : A_AC3
Продолжительность : 1 ч. 1 м.
Вид битрейта : Постоянный
Битрейт : 192 Кбит/сек
Каналы : 2 канала
Расположение каналов : Front: L R
Частота : 48,0 КГц
Битовая глубина : 16 бит
Метод сжатия : С потерями
Размер потока : 84,1 Мбайт (12%)
Язык : Russian
Default : Да
Forced : Нет

Скриншоты

Резервные скриншоты

-[2'081]
[teatrix.ru].t20207.torrent 
Торрент: Зарегистрирован [ 2016-03-19 00:55 ] · 5392934B1EEED90EBE8913FB460CF1C04DAB6A70

Скачать .torrent

Скачать

14 KB

Статус: проверено
Скачан: 0 раз
Размер: 698 MB
terms.php



Показать сообщения:    

Текущее время: 08-Дек 09:03

Часовой пояс: UTC + 3


Вы не можете начинать темы
Вы не можете отвечать на сообщения
Вы не можете редактировать свои сообщения
Вы не можете удалять свои сообщения
Вы не можете голосовать в опросах
Вы не можете прикреплять файлы к сообщениям
Вы можете скачивать файлы